Fuse One - Fuse One (1980/2013) [DSD64 + Hi-Res FLAC]

Posted By: HDV
Fuse One - Fuse One (1980/2013) [DSD64 + Hi-Res FLAC]

Fuse One - Fuse One (1980/2013)
DSD64 (.dsf) 1 bit/2,8 MHz | Time - 37:44 minutes | 1,07 GB
FLAC (tracks) 24-bit/88,2 kHz | Time - 37:44 minutes | 826 MB
Studio Master, Official Digital Download | Artwork: Front cover

Fuse One was a group of jazz musicians who collaborated for two albums released on CTI Records. The liner notes to their first album described the group thus: "Fuse One is conceived as a forum in which major contemporary musicians perform according to their own musical disciplines and without the constraints that accompany leader responsibilities. Each player brings in new compositions and ideas".

Tracklist:

01 - Grand Prix
02 - Waterside
03 - Sunshine Lady
04 - To Whom All Things Concern
05 - Double Steal
06 - Friendship
07 - Taxi Blues

Produced by Creed Taylor. Engineered by Rudy Van Gelder. Arranged by arranged by Jeremy Wall (of Spyro Gyra)
Tracks "1,3-6" - Recorded at Evergreen Sudio and Westlake Audio in April 1980; Additional recording at Secret Studio.
Tracks "2,7" Recorded at Van Gelder Recording Studio, in May and June 1980.
Mixed and Mastered at Van Gelder Recording Studio.

FLAC version has been carefully converted from DSD.
No additional processing, amplify with custom setting.

Analyzed: Fuse One / Fuse One
––––––––––––––––––––––––––––––––––––––––

DR Peak RMS Duration Track
––––––––––––––––––––––––––––––––––––––––
DR14 -5.01 dB -21.78 dB 5:28 01-Grand Prix
DR13 -5.10 dB -21.62 dB 4:41 02-Waterside
DR13 -7.00 dB -24.45 dB 4:05 03-Sunshine Lady
DR13 -5.61 dB -20.78 dB 4:51 04-To Whom All Things Concern
DR15 -5.61 dB -22.73 dB 6:26 05-Double Steal
DR13 -8.94 dB -26.56 dB 6:14 06-Friendship
DR15 -4.55 dB -23.34 dB 5:59 07-Taxi Blues
––––––––––––––––––––––––––––––––––––––––

Number of tracks: 7
Official DR value: DR14

Samplerate: 2822400 Hz / PCM Samplerate: 88200 Hz
Channels: 2
Bits per sample: 1
Bitrate: 5645 kbps
Codec: DSD64
================================================================================


Thanks to the Original customer!