Tags
Language
Tags

Gary Peacock - Voices (1971) [Japanese Reissue 2007] PS3 ISO + DSD64 + Hi-Res FLAC

Posted By: HDAtall
Gary Peacock - Voices (1971) [Japanese Reissue 2007] PS3 ISO + DSD64 + Hi-Res FLAC

Gary Peacock - Voices (1971) [Japanese Reissue 2007]
PS3 Rip | SACD ISO | DSD64 2.0 > 1-bit/2.8224 MHz | 53:03 minutes | Scans NOT included | 1,49 GB
or DSD64 Stereo (from SACD-ISO to Tracks.dsf) > 1-bit/2.8224 MHz | Scans NOT included | 1,35 GB
or FLAC (carefully converted & encoded to tracks) 24bit/96 kHz | Scans NOT included | 1,18 GB

Voices is a studio album by American bassist Gary Peacock featuring drummer Hiroshi Murakami, percussist Masahiko Togashi, and pianist Masabumi Kikuchi. The album was recorded in Tokyo in 1971 and released via Sony Records label.

After touring with Albert Ayler, Peacock took time off from music & moved to Japan in 1969, where he studied eastern philosophy & medicine. This album featuring a quartet composed of Peacock & 3 Japanese players. The music is at times very minimalist, with Gary Peacock’s bass dominating the pieces most of the time.

Tracklist:

01. Ishi
02. Bonsho
03. Hollows
04. Voice From The Past
05. Requiem
06. Ae. Ay.

Recorded on April 5, 1971 at Mohri Studio, Tokyo.

Personnel
Gary Peacock - Bass
Kikuchi Masabumi - Piano, Electric Piano
Hiroshi Murakami - Drums (tracks: 1 to 3,5,6)
Masahiko Togashi - Drums (tracks: 1 to 4,6)

foobar2000 1.6.7 / Dynamic Range Meter 1.1.1

––––––––––––––––––––––––––––––––––––––––
Analyzed: Gary Peacock / Voices
––––––––––––––––––––––––––––––––––––––––

DR Peak RMS Duration Track
––––––––––––––––––––––––––––––––––––––––
DR15 -1.75 dB -22.15 dB 11:49 01-ISHI
DR14 -6.84 dB -24.76 dB 6:14 02-BONSHO
DR16 -2.47 dB -22.63 dB 7:51 03-HOLLOWS
DR17 -4.26 dB -25.44 dB 11:18 04-VOICE FROM THE PAST
DR16 -8.51 dB -26.43 dB 6:04 05-REQUIEM
DR15 -3.02 dB -22.46 dB 9:47 06-AE. AY.
––––––––––––––––––––––––––––––––––––––––

Number of tracks: 6
Official DR value: DR16

Samplerate: 2822400 Hz / PCM Samplerate: 176400 Hz
Channels: 2
Bits per sample: 1
Bitrate: 5645 kbps
Codec: DSD64


Thanks to ManWhoCan!
Uncompressed SACD ISO size > 2,13 GB
>