Gavin DeGraw - Something Worth Saving (2016) [Official Digital Download]

Posted By: HDV
Gavin DeGraw - Something Worth Saving (2016) [Official Digital Download]

Gavin DeGraw - Something Worth Saving (2016)
FLAC (tracks) 24-bit/44,1 kHz | Time - 36:28 minutes | 464 MB
Studio Master, Official Digital Download | Artwork: Front cover

"Something Worth Saving" is the sixth studio album by American singer-songwriter Gavin DeGraw. This album centers around uplifting messages and happiness. It’s the next phase in his life and he’s all about “focusing on the good things”. "Something Worth Saving" is the second album Gavin DeGraw has produced with other songwriters rather than writing the entire album himself. This album features work from Todd Clark, Jason Saenz, Gregg Wattenberg, Eric Frederic, Dave Bassett, Johan Carisson, John Shanks, and Gavin DeGraw.

The sixth studio long-player from the multi-platinum-selling singer/songwriter, Something Worth Saving sees Gavin DeGraw treading familiar ground, but with the easy yet cocksure gait of a pop pro. DeGraw's big, soulful, and elastic voice remains his biggest asset, and it helps to elevate some of the album's less inspired numbers, specifically the paint-by-numbers opener/single "She Sets the City on Fire." With that bit of Fun.-aping, romantic comedy trailer bait out of the way, DeGraw is able to flex his songwriting chops a bit, beginning with the sultry "You Make My Heart Sing Louder," a bluesy, midtempo come-hither banger that finds the sweet spot between the club and the ride home. Elsewhere, the subtle electro-folk gem "Kite Like a Girl" invokes late-'70s Paul Simon by way of Ed Sheeran, the bouncy "Anaalee" flirts with classic Motown and soul in a sort of "Come on Eileen" way, and the punchy "How Lucky Can a Man Get" suggests that DeGraw spent his formative years absorbing more than his fair share of classic rock radio – the title track/closer is a genuine lighter ballad. As per usual, DeGraw, like a 21st century Huey Lewis, delivers everything with an amiable, everyman gusto, and it's that penchant for workmanlike listener inclusiveness that ultimately makes Something Worth Saving worth dropping the needle on.


01 - She Sets The City On Fire
02 - You Make My Heart Sing Louder
03 - Kite Like Girl
04 - Making Love With The Radio On
05 - Harder To Believe
06 - Say I Am
07 - How Lucky Can A Man Get
08 - New Love
09 - Annalee
10 - Something Worth Saving

Analyzed: Gavin DeGraw / Something Worth Saving

DR Peak RMS Duration Track
DR6 -0.01 dB -7.46 dB 3:39 01-She Sets The City On Fire
DR5 0.00 dB -6.77 dB 3:55 02-You Make My Heart Sing Louder
DR6 0.00 dB -7.63 dB 3:20 03-Kite Like Girl
DR5 0.00 dB -7.38 dB 4:10 04-Making Love With The Radio On
DR5 -0.01 dB -7.23 dB 4:04 05-Harder To Believe
DR5 -0.01 dB -7.12 dB 3:16 06-Say I Am
DR5 -0.01 dB -5.53 dB 3:53 07-How Lucky Can A Man Get
DR5 -0.01 dB -7.00 dB 3:27 08-New Love
DR6 0.00 dB -7.76 dB 3:06 09-Annalee
DR6 0.00 dB -8.34 dB 3:39 10-Something Worth Saving

Number of tracks: 10
Official DR value: DR5

Samplerate: 44100 Hz
Channels: 2
Bits per sample: 24
Bitrate: 1567 kbps
Codec: FLAC

Thanks to the Original customer!