Subcategories

George Benson - Body Talk (1973/2016) [Official Digital Download 24bit/192kHz]

Posted By: HDV
George Benson - Body Talk (1973/2016) [Official Digital Download 24bit/192kHz]

George Benson - Body Talk (1973/2016)
FLAC (tracks) 24 bit/192 kHz | Time - 36:52 minutes | 1,46 GB
Studio Master, Official Digital Download | Artwork: Front cover

With a title like Body Talk, and a lead-off track called "Dance," George Benson—a guitar-god-on-the-rise when this album originally hit shelves in 1973—makes it clear that this music is all about feeling the groove. While a good number of Benson projects on CTI benefited from Don Sebesky's arrangements, the guitarist needed a funkier feeling for this album, and Pee Wee Ellis was just the man to provide it. Ellis helped to create the sound that defined the music of James Brown in the late '60s, becoming an important presence as an arranger on Creed Taylor's Kudu imprint, making him the perfect person to tap for horn arrangements here.

With an eye and ear on what was happening on the soul charts – James Brown in particular – Benson made a decided swerve toward R&B on this release. Indeed the JB's Pee Wee Ellis turns up as a big band arranger on three tracks, and he no doubt had a direct influence on the distinct JB groove of one of the non-big-band tunes, "Dance." It should come as no surprise by now that this formidable guitarist has no problem handling any kind of groove, although the mixed rhythm section of Jack DeJohnette, Ron Carter, electric pianist Harold Mabern, and percussionist Mobutu sometimes sends mixed messages. Earl Klugh has a few tasty moments on his own, and there are some reconnaissance flights back to the jazz side of George, which he handles with his usual confident aplomb.

Tracklist:

01 - Dance
02 - When Love Has Grown
03 - Plum
04 - Body Talk
05 - Top Of The World

Produced by Creed Taylor. Engineered by Rudy Van Gelder.
Recorded on on July 17 (Tracks 4-5) and 18 (Tracks 1-3), 1973 at Van Gelder Studio, Englewood Cliffs, NJ.

Musicians:
George Benson - guitar
Earl Klugh - guitar
Harold Mabern - electric piano
Ron Carter - bass
Gary King - electric bass
Jack DeJohnette - drums
Mobutu - percussion
Gerald Chamberlain - trombone
Dick Griffin - trombone
Jon Faddis - trumpet
John Gatchell - trumpet
Waymon Reed - trumpet
Frank Foster - tenor saxophone
Pee Wee Ellis - arranger, conductor

Analyzed: George Benson / Body Talk
––––––––––––––––––––––––––––––––––––––––

DR Peak RMS Duration Track
––––––––––––––––––––––––––––––––––––––––
DR13 -0.10 dB -14.45 dB 8:25 01-Dance
DR11 -0.10 dB -13.01 dB 5:04 02-When Love Has Grown
DR12 -0.10 dB -14.28 dB 5:15 03-Plum
DR12 -0.10 dB -13.79 dB 8:23 04-Body Talk
DR13 -0.10 dB -15.22 dB 9:46 05-Top Of The World
––––––––––––––––––––––––––––––––––––––––

Number of tracks: 5
Official DR value: DR12

Samplerate: 192000 Hz
Channels: 2
Bits per sample: 24
Bitrate: 5381 kbps
Codec: FLAC
================================================================================


Thanks to the Original customer!

Some more of 'George Benson' in Hi-Res