Gerry Mulligan and The Concert Jazz Band - At The Village Vanguard (1961/2014) [HDTT DSD128 + Hi-Res FLAC]

Posted By: HDV
Gerry Mulligan and The Concert Jazz Band - At The Village Vanguard (1961/2014) [HDTT DSD128 + Hi-Res FLAC]

Gerry Mulligan and The Concert Jazz Band - At The Village Vanguard (1961/2014)
DSD128 (.dsf) 1 bit/5,6 MHz | Time - 40:34 minutes | 2,18 GB
FLAC (tracks) 24-bit/96 kHz | Time - 40:34 minutes | 886 MB
High Definition Tape Transfers, Official Digital Download | Artwork: Digital booklet

"Gerry Mulligan and the Concert Jazz Band at the Village Vanguard" is a live album recorded by American jazz saxophonist and bandleader Gerry Mulligan featuring performances recorded at the Village Vanguard in late 1960 which were originally released on the Verve label in 1961.

Of all the recordings made by Gerry Mulligan's Concert Jazz Band in the 1960s, this is the definitive one. There are many high points, including "Body and Soul" (which has fine solos from the baritone/leader and valve trombonist Bob Brookmeyer), "Come Rain or Come Shine," and the swinging "Let My People Be," but "Blueport" takes honors. On the latter, after hot solos by Mulligan, trombonist Willie Dennis, and Jim Reider on tenor, Mulligan and trumpeter Clark Terry have a lengthy trade-off that is quite hilarious with a countless number of quotes from different songs; at one point they trade off cities. This music is essential.

Tracklist:

01 - Blueport
02 - Body and Soul
03 - Black Nightgown
04 - Come Rain or Come Shine
05 - Lady Chatterley's Mother
06 - Let My People Be

Recorded on December 11, 1960 at Village Vanguard, NYC.
Transferred from Verve 4-track tape by HDTT.

Musicians:
Gerry Mulligan - baritone saxophone, piano on "6"
Clark Terry - trumpet
Don Ferrara - trumpet
Nick Travis - trumpet
Willie Dennis - trombone
Alan Raph - bass trombone
Bob Brookmeyer - valve trombone
Bob Donovan - alto saxophone
Gene Quill - alto saxophone, clarinet
Jim Reider - tenor saxophone
Gene Allen - baritone saxophone, bass clarinet
Bill Crow - bass
Mel Lewis - drums

Analyzed: Gerry Mulligan and The Concert Jazz Band / Gerry Mulligan and the Concert Jazz Band at the Village Vanguard
––––––––––––––––––––––––––––––––––––––––

DR Peak RMS Duration Track
––––––––––––––––––––––––––––––––––––––––
DR11 -8.07 dB -23.03 dB 11:01 01-Blueport
DR13 -8.69 dB -26.03 dB 5:43 02-Body and Soul
DR10 -8.19 dB -23.34 dB 4:06 03-Black Nightgown
DR11 -8.93 dB -23.38 dB 5:30 04-Come Rain or Come Shine
DR12 -6.01 dB -21.46 dB 6:11 05-Lady Chatterley's Mother
DR12 -6.97 dB -23.19 dB 8:02 06-Let My People Be
––––––––––––––––––––––––––––––––––––––––

Number of tracks: 6
Official DR value: DR12

Samplerate: 5644800 Hz / PCM Samplerate: 176400 Hz
Channels: 2
Bits per sample: 1
Bitrate: 11290 kbps
Codec: DSD128
================================================================================


Thanks to the Original customer!