Stan Getz & Gerry Mulligan - Getz Meets Mulligan (1957/2015) [HDTT DSD128 + Hi-Res FLAC]

Posted By: HDV
Stan Getz & Gerry Mulligan - Getz Meets Mulligan (1957/2015) [HDTT DSD128 + Hi-Res FLAC]

Stan Getz & Gerry Mulligan - Getz Meets Mulligan (1957/2015)
DSD128 (.dsf) 1 bit/5,6 MHz | Time - 37:11 minutes | 1,82 GB
FLAC (tracks) 24-bit/96 kHz | Time - 37:11 minutes | 804 MB
High Definition Tape Transfers, Official Digital Download | Artwork: Digital booklet

"Getz Meets Mulligan" (also released as "Gerry Mulligan Meets Stan Getz" and "Getz Meets Mulligan in Hi-Fi") is an album by American jazz saxophonists Gerry Mulligan and Stan Getz featuring performances recorded in 1957 and released on the Verve label.

Gerry Mulligan and Stan Getz are far and away two of the greatest legends of jazz. This 1957 album is like two sax shaped butterflies, one baritone, one tenor darting around one another. Together Mulligan and Getz make the most sublime combinations and riff off each other with a musical choreography that is dazzling. They also improvise simultaneously with great results. Getz playing baritone and Mulligan playing tenor with Lou Levy on piano, Ray Brown on bass and the great Stan Levey is on drums.

Tracklist:

01 - Let's Fall In Love
02 - Anything Goes
03 - Too Close For Comfort
04 - That Old Feeling
05 - This Can't Be Love
06 - A Ballad

Recorded on October 12, 1957 in Los Angeles, CA.
Transferred from a 15ips 2-track tape by HDTT.

Musicians:
Gerry Mulligan - tenor saxophone on tracks "1-3", baritone saxophone on tracks "4-6"
Stan Getz - baritone saxophone on tracks "1-3", tenor saxophone on tracks "4-6"
Lou Levy - piano
Ray Brown - bass
Stan Levey - drums

Analyzed: Stan Getz & Gerry Mulligan / Getz Meets Mulligan
––––––––––––––––––––––––––––––––––––––––

DR Peak RMS Duration Track
––––––––––––––––––––––––––––––––––––––––
DR11 -7.62 dB -22.70 dB 6:25 01-Let's Fall In Love
DR11 -7.80 dB -21.72 dB 3:36 02-Anything Goes
DR12 -7.40 dB -22.39 dB 6:53 03-Too Close For Comfort
DR11 -6.88 dB -21.80 dB 5:53 04-That Old Feeling
DR11 -6.58 dB -21.52 dB 8:40 05-This Can't Be Love
DR11 -8.14 dB -22.17 dB 5:44 06-A Ballad
––––––––––––––––––––––––––––––––––––––––

Number of tracks: 6
Official DR value: DR11

Samplerate: 5644800 Hz / PCM Samplerate: 176400 Hz
Channels: 2
Bits per sample: 1
Bitrate: 11290 kbps
Codec: DSD128
================================================================================


Thanks to the Original customer!