Tags
Language
Tags

Stan Getz & Joao Gilberto - Getz/Gilberto #2 (1966/2014) [Official Digital Download 24bit/192kHz]

Posted By: HDV
Stan Getz & Joao Gilberto - Getz/Gilberto #2 (1966/2014) [Official Digital Download 24bit/192kHz]

Stan Getz & João Gilberto - Getz/Gilberto #2 (1966/2014)
FLAC (tracks) 24 bit/192 kHz | Time - 34:59 minutes | 1,46 GB
FLAC (tracks) 24 bit/96 kHz | Time - 34:59 minutes | 712 MB
Studio Master, Official Digital Download | Artwork: Front cover

This live follow-up to the surprise blockbuster "Getz/Gilberto" was inevitable. Interestingly, the original LP release of the October 1964 Carnegie Hall concert focused on separate sets by Getz's quartet (featuring vibist Gary Burton) and Gilberto's trio: each is as meditative and sweetly melancholic as you'd expect.

Justifiably overshadowed by the peerless Getz/Gilberto album (which featured "Girl from Ipanema") from a year before, Getz/Gilberto #2 still holds its own with an appealing selection of fine jazz and bossa nova cuts. Unlike the first album's seamless collaboration by Getz, João Gilberto, Astrud Gilberto, and Antonio Carlos Jobim, here Getz and João Gilberto turn in separate sets recorded live at Carnegie Hall in October of 1964. Backed by a stellar quartet comprised of vibraphonist Gary Burton, bassist Gene Cherico, and drummer Joe Hunt, Getz turns in a sparkling performances on the seldom covered ballad "Tonight I'll Shall Sleep with a Smile on My Face," while stretching out nicely on his original blues swinger "Stan's Blues." With the support of bassist Keeter Betts and drummer Helcio Milito, Gilberto displays his subtle vocal and guitar talents on a set of bossa nova favorites, including his own "Bim Bom" and Jobim's "Meditation." An appealing title amongst Getz's many bossa nova outings, but not an essential one. Newcomers should definitely start with the Getz/Gilberto album before checking this one out.

Tracklist:

01 - Grandfather's Waltz
02 - Tonight I Shall Sleep With A Smile On My Face
03 - Stan's Blues
04 - Here's That Rainy Day
05 - Samba De Minha Terra
06 - Rosa Moreno
07 - Um Abraco No Bonea
08 - Bim Bom
09 - Meditation
10 - O Pato (The Duck)

Produced by Creed Taylor. Engineered by Rudy Van Gelder.
Recorded live on October 9, 1964 at Carnegie Hall, New York.
Digitally Remastered.

Musicians:
Stan Getz - tenor saxophone
João Gilberto - vocals, guitar
Astrud Gilberto - vocals
Gary Burton - vibraphone
Gene Cherico - bass
Keter Betts - bass
Joe Hunt - drums
Helcio Melito - drums

Analyzed: Stan Getz & João Gilberto / Getz/Gilberto # 2
––––––––––––––––––––––––––––––––––––––––

DR Peak RMS Duration Track
––––––––––––––––––––––––––––––––––––––––
DR12 -0.85 dB -17.40 dB 4:57 01-Grandfather's Waltz
DR13 0.00 dB -17.47 dB 2:44 02-Tonight I Shall Sleep With A Smile On My Face
DR13 0.00 dB -16.06 dB 4:45 03-Stan's Blues
DR12 -0.06 dB -16.90 dB 4:00 04-Here's That Rainy Day
DR12 -0.80 dB -16.18 dB 3:08 05-Samba De Minha Terra
DR12 -0.18 dB -17.85 dB 4:05 06-Rosa Moreno
DR14 -0.78 dB -17.77 dB 2:52 07-Um Abraco No Bonea
DR11 -1.95 dB -16.74 dB 2:10 08-Bim Bom
DR11 -2.55 dB -16.72 dB 4:01 09-Meditation
DR12 -2.68 dB -17.66 dB 2:17 10-O Pato (The Duck)
––––––––––––––––––––––––––––––––––––––––

Number of tracks: 10
Official DR value: DR12

Samplerate: 192000 Hz
Channels: 2
Bits per sample: 24
Bitrate: 5538 kbps
Codec: FLAC
================================================================================


Thanks to the Original customer!

Stan Getz & João Gilberto - Getz/Gilberto '76 (2016)