Tags
Language
Tags

Giacomo Gates - Everything Is Cool (2015) [Official Digital Download]

Posted By: HDV
Giacomo Gates - Everything Is Cool (2015) [Official Digital Download]

Giacomo Gates - Everything Is Cool (2015)
FLAC (tracks) 24-bit/44,1 kHz | Time - 48:23 minutes | 526 MB
Studio Master, Official Digital Download | Artwork: Digital booklet

Giacomo Gates approaches jazz singing with a showman's poise and an aficionado's zeal. With his deep, cognac baritone and his vintage-hipster lexicon, his phrasing and his bearing, he upholds a distinctly masculine ideal of deceptively easy nonchalance. Gates is known as the modern day heir to Eddie Jefferson, the godfather of vocalese. Here he uses the style sparingly, but to great advantage, never showboating by using the challenging technique. Gates' considerable chops are always at the service of the song. Backed by his go-to pianist, John di Martino and guitarist Tony Lombardozzi leading the rhythm section and Grant Stewart out in front on saxophone, Giacomo sings and swings his way through a dozen tunes - some familiar favorites, some rarely heard gems. He may be soft and subtle or he may be hip and humorous but one thing "Giacomo Gates" is not, is predictable.

A latecomer to jazz as a vocation, Giacomo Gates cut his first album 20 years ago at age 45 and has since recorded just six more as a leader. But what he lacks in quantity he’s more than made up for in quality. A fervent acolyte of bebop, scat and vocalese masters, Gates has dotted his albums with tributes to such heroes. Everything Is Cool marks his deepest dive into their collective songbooks, including selections by such seminal figures as Babs Gonzales, Oscar Brown Jr., Jon Hendricks and Frank Rosolino, with Brubeck and Monk added for good measure. As he enters his mid-60s, Gates’ phrasing has grown a little looser, his range narrower. Still, he remains one of the finest interpreters around, fully on par with Mark Murphy and Kurt Elling. Oddly, given the album’s focus on intrepid vocal adventurers, Gates plays it straighter than usual, adding only the occasional scat chorus and just one meaty vocalese, stretching the center of Monk’s “Well, You Needn’t.” Gonzales is provided the most attention, Gates covering three of his tunes, including the breezy, Jimmy Van Heusen-worthy title track. Rosolino’s “Please Don’t Bug Me” is a vengeful delight, while Timmie Rogers’ bluesy “If I Were You, Baby, I’d Love Me” (written for Nat Cole) recalls the laidback sophistication of Matt Dennis. Most curious (and perhaps coolest of this ice-cool set) is “All Alone,” a bitter slice of beat-poetry payback written by comic legend Lenny Bruce in 1958, after his wife left him.

Tracklist:

01 - Everything Is Cool
02 - If I Were You, Baby, I'd Love Me
03 - When Lovers They Lose
04 - Social Call
05 - Hazel's Hips
06 - Almost Blue
07 - Take Five
08 - Who Threw The Glue
09 - Here Today Gone Tomorrow
10 - Please Don't Bug Me
11 - All Alone
12 - Well You Needn't (It's Over Now)

Produced by Mark Ruffin and Giacomo Gates.
Recorded on March 21,2015 Trading 8s Music, Paramus, NJ.
Engineered, Mixed & Edited by Chris Sulit.
Mastered by Kevin Blackler.

Musicians:
Giacomo Gates - vocals
Grant Stewart - saxophone
John Di Martino - piano
Tony Lombardozzi - guitar
Ed Howard - bass
Willard Dyson - drums

Analyzed: Giacomo Gates / Everything Is Cool
––––––––––––––––––––––––––––––––––––––––

DR Peak RMS Duration Track
––––––––––––––––––––––––––––––––––––––––
DR12 -0.52 dB -14.73 dB 3:15 01-Everything Is Cool
DR11 -0.47 dB -13.80 dB 5:40 02-If I Were You, Baby, I'd Love Me
DR13 -0.57 dB -16.05 dB 5:18 03-When Lovers They Lose
DR11 -0.47 dB -14.13 dB 4:16 04-Social Call
DR11 -0.50 dB -13.93 dB 3:16 05-Hazel's Hips
DR14 -0.57 dB -18.46 dB 2:54 06-Almost Blue
DR12 -0.52 dB -15.11 dB 4:33 07-Take Five
DR11 -0.47 dB -13.85 dB 3:40 08-Who Threw The Glue
DR14 -0.57 dB -17.74 dB 5:11 09-Here Today Gone Tomorrow
DR10 -0.48 dB -12.76 dB 3:25 10-Please Don't Bug Me
DR15 -1.03 dB -20.89 dB 3:00 11-All Alone
DR10 -0.51 dB -13.01 dB 3:55 12-Well You Needn't (It's Over Now)
––––––––––––––––––––––––––––––––––––––––

Number of tracks: 12
Official DR value: DR12

Samplerate: 44100 Hz
Channels: 2
Bits per sample: 24
Bitrate: 1534 kbps
Codec: FLAC
================================================================================


Thanks to the Original customer!