Giraffage - Too Real (2017) [Official Digital Download]

Posted By: HDV
Giraffage - Too Real (2017) [Official Digital Download]

Giraffage - Too Real (2017)
FLAC (tracks) 24-bit/44,1 kHz | Time - 34:59 minutes | 399 MB
Studio Master, Official Digital Download | Artwork: Front cover

Charlie Yin, better known by his stage name Giraffage, is an American electronic music record producer. "Too Real" is his debut full-length album. Created over the span of two years and recorded entirely in his bedroom in San Francisco, the album chronicles the producers personal journey of self healing, with each song representing a different period in his life. It’s lined with his unique blend of kaleidoscopic beats, dreamy synth-pop and R&B melodies, and features artists Japanese Breakfast, Body Language’s Angelica Bess and more.


When Giraffage set out to write his debut solo album, he knew it would be a hard road – but maybe he didn't know how hard. His sweet, adorable, nostalgic sound doesn't scream tortured artist, but behind the scenes he was a real wreck. It's definitely an emotional journey worth taking. It might also be the last time you hear those AIM bleeps again. As Giraffage says on Twitter, it's 35 minutes of fun two years in the making.

The son of Taiwanese immigrants, Giraffage thrust himself into music at an early age, stark deviation from his cultural expectations. He quickly skyrocketed from just being a household name amongst blogs to playing some the world’s biggest music festivals with his signature remixes of R&B favorites that exploded online. In 2014, he released his breakout project by revamping The-Dream's Love/Hate in its entirety and it quickly solidified his position as one of the most promising young producers in the game. He followed it up with his acclaimed NO REASON EP later that year and most recently his collaboration on "Bring Me Your Love" with Thea that has amassed millions of plays online.

Tracklist:

01 - Do U Want Me
02 - Maybes (feat. Japanese Breakfast)
03 - Slowly (feat. Matosic)
04 - Edge
05 - Green Tea (feat. Angelica Bess)
06 - Falling Softly
07 - Earth
08 - 19 Hours (feat. Harrison Lipton)
09 - Just Over the Horizon
10 - First Breath

Please note: Track "3" presented in 16-bit/44kHz.

Analyzed: Giraffage / Too Real
––––––––––––––––––––––––––––––––––––––––

DR Peak RMS Duration Track
––––––––––––––––––––––––––––––––––––––––
DR5 -0.21 dB -7.94 dB 3:44 01-Do U Want Me
DR5 -0.21 dB -11.26 dB 4:16 02-Maybes (feat. Japanese Breakfast)
––––––––––––––––––––––––––––––––––––––––

Number of tracks: 2
Official DR value: DR5

Samplerate: 44100 Hz
Channels: 2
Bits per sample: 24
Bitrate: 1590 kbps
Codec: FLAC
================================================================================

––––––––––––––––––––––––––––––––––––––––
Statistics for: 03-Slowly (feat. Matosic)
Number of samples: 9531157
Duration: 3:36
––––––––––––––––––––––––––––––––––––––––

Left Right

Peak Value: -0.21 dB –- -0.21 dB
Avg RMS: -8.04 dB –- -8.26 dB
DR channel: 5.31 dB –- 5.54 dB
––––––––––––––––––––––––––––––––––––––––

Official DR Value: DR5

Samplerate: 44100 Hz
Channels: 2
Bits per sample: 16
Bitrate: 972 kbps
Codec: FLAC
================================================================================
––––––––––––––––––––––––––––––––––––––––
Analyzed: Giraffage / Too Real
––––––––––––––––––––––––––––––––––––––––

DR Peak RMS Duration Track
––––––––––––––––––––––––––––––––––––––––
DR5 -0.21 dB -8.78 dB 3:30 04-Edge
DR5 -0.21 dB -8.02 dB 4:25 05-Green Tea (feat. Angelica Bess)
DR7 -0.21 dB -9.25 dB 2:23 06-Falling Softly
DR7 -0.21 dB -10.04 dB 3:13 07-Earth
DR6 -0.21 dB -9.29 dB 3:34 08-19 Hours (feat. Harrison Lipton)
DR6 -0.21 dB -8.91 dB 1:31 09-Just Over the Horizon
DR7 -0.21 dB -9.72 dB 4:47 10-First Breath
––––––––––––––––––––––––––––––––––––––––

Number of tracks: 7
Official DR value: DR6

Samplerate: 44100 Hz
Channels: 2
Bits per sample: 24
Bitrate: 1644 kbps
Codec: FLAC
================================================================================


Thanks to the Original customer!