Gordon Goodwin's Little Phat Band - An Elusive Man (2016) [Official Digital Download 24-bit/96 kHz]

Posted By: HDV
Gordon Goodwin's Little Phat Band - An Elusive Man (2016) [Official Digital Download 24-bit/96 kHz]

Gordon Goodwin's Little Phat Band - An Elusive Man (2016)
FLAC (tracks) 24-bit/96 kHz | Time - 65:31 minutes | 1,22 GB
Studio Master, Official Digital Download | Artwork: Front cover

Winning 4 Grammys and 20 Grammy nominations is a reliable indicator for constant and high-level professionalism. Gordon Goodwin built his fame with the Big Phat Band, a large 18-piece ensemble. Little Phat Band is his 8-member alternative.

The LP Shuffle is a striking example for a Big Band formation with natural energy and a blistering chemistry. The emphasis is on pure brass in straight swinging. Cot In The Act is full of fun and flavor with guitar and sax in expanding solos. But when the brass team gets underway, the music is reaching full steam.

Behind You opens a plethora of musical boxes, moods and styles. One never knows what to find next corner. On the title track Andrew Synowiec brings in a sonic fury with bluesy approach on electric guitar through distortion effects. The various horns amp up to a powerful equipoise.

Samba Cya pulses with impressive solos by pianist Gordon Goodwin and guitarist Andrew Synowiec. A scorebook of this Latin jazz tune is available. Garaje Gato (Garage Cat) celebrates the salsa, the rhythm and more flowers of beautiful Latin America with musical pyrotechnics of Wayne Bergeron on trumpet, Bernie Dresel on drums and Gordon on piano.

With I Know You and Miles Davis' Walkin' Little Phat Band returns to the swinging jazz of East Coast with a broad jazz orchestration. In A Sentimental Mood is a composition by Duke Ellington (1935), he recorded with John Coltrane. The band keeps the original arrangement untouched and opens this way a window to the glorious time of Big Bands with their very own spirit.

Why We Can't Have Nice Things exposes Eric Marienthal's impressive talent on tenor sax which he only can expand in full range when he is performing the jazz realm. Andy Martin follows with another smashing solo on trombone.

Gordon Goodwin is with his formations the first address in Big Bands and with An Elusive Man he remains in this genre the measure of all things.

Tracklist:

01 - The LP Shuffle
02 - Cot in the Act
03 - Behind You
04 - An Elusive Man
05 - Samba Cya
06 - Garaje Gato
07 - I Know You
08 - Walkin'
09 - In a Sentimental Mood
10 - Why We Can't Have Nice Things

Musicians:
Gordon Goodwin - piano and tenor sax
Wayne Bergeron - trumpet
Eric Marienthal - alto and tenor sax
Andy Martin - trombone
Andrew Synowiec - electric and acoustic guitar
Rick Shaw - electric and acoustic bass
Bernie Dresel - drums
Joey De Leon - percussion

Analyzed: Gordon Goodwin's Little Phat Band / An Elusive Man
––––––––––––––––––––––––––––––––––––––––

DR Peak RMS Duration Track
––––––––––––––––––––––––––––––––––––––––
DR8 -1.32 dB -11.08 dB 7:36 01-The LP Shuffle
DR8 -1.32 dB -11.07 dB 6:37 02-Cot in the Act
DR8 -1.32 dB -11.91 dB 6:51 03-Behind You
DR7 -1.32 dB -10.31 dB 9:11 04-An Elusive Man
DR8 -1.32 dB -11.18 dB 5:06 05-Samba Cya
DR9 -1.32 dB -11.95 dB 6:17 06-Garaje Gato
DR9 -1.32 dB -11.94 dB 5:27 07-I Know You
DR8 -1.32 dB -11.66 dB 5:32 08-Walkin'
DR11 -1.32 dB -15.11 dB 6:35 09-In a Sentimental Mood
DR9 -1.32 dB -11.76 dB 6:19 10-Why We Can't Have Nice Things
––––––––––––––––––––––––––––––––––––––––

Number of tracks: 10
Official DR value: DR9

Samplerate: 96000 Hz
Channels: 2
Bits per sample: 24
Bitrate: 2503 kbps
Codec: FLAC
================================================================================


Thanks to the Original customer!