Grateful Dead - July 1978: The Complete Recordings (2016) [Official Digital Download 24-bit/192kHz]

Posted By: HDV
Grateful Dead - July 1978: The Complete Recordings (2016) [Official Digital Download 24-bit/192kHz]

Grateful Dead - July 1978: The Complete Recordings (2016)
FLAC (tracks) 24-bit/192 kHz | Time - 12h 25m 47s | ~ 24,55 GB
FLAC (tracks) 24-bit/96 kHz | Time - 12h 25m 47s | ~ 14,95 GB
Studio Master, Official Digital Download | Artwork: Front cover(s)

The Grateful Dead have opened the vault once again for another box set. "July 1978: The Complete Recordings" featuring 12 CDs and five complete shows. All five shows that are collected in the box set were taped by Betty Cantor-Jackson and are the first official release from the long-lost “Betty Boards” that were recently returned to the band’s vault. Included within are recordings of the Grateful Dead’s visits to Arrowhead Stadium in Kansas City (7/1/78), St. Paul Civic Center in St. Paul (7/3/78), Omaha Civic Auditorium in Omaha (7/5/78) and the band’s debut at Red Rocks Amphitheater in Morrison, Colorado (7/7/78 and 7/8/78).

Are you ready for "Betty"? If you just said it's about time, we couldn't agree more! We’re pleased to announce JULY 1978: THE COMPLETE RECORDINGS, five incredible unreleased shows and the first official release from the long-lost “Betty Boards,” recently returned to the Grateful Dead’s vault. Follow the Dead on a sonic journey through a superb selection of settings, an often epic adventure that finds them winning over Willie and Waylon fans in Kansas City, conjuring charisma in Omaha, and elevating the Red Rocks beyond their already spiritual planes. With five distinct performances painting the masterpiece of 1978, Betty Cantor-Jackson's always-pristine soundboard recordings, and the "hall-of-fame pedigree" of the Dead's first-ever shows at the legendary Red Rocks Amphitheatre, this is one release that far exceeds excellence in music, sound quality, and rarity.

Tracklist:

July 1, 1978 - Arrowhead Stadium, Kansas City, MO
CD1 #01 - Bertha
CD1 #02 - Good Lovin'
CD1 #03 - Tennessee Jed
CD1 #04 - Jack Straw
CD1 #05 - Friend Of The Devil
CD1 #06 - Me And My Uncle
CD1 #07 - Big River
CD2 #01 - Terrapin Station
CD2 #02 - Playing in The Band
CD2 #03 - Rhythm Devils
CD2 #04 - Space
CD2 #05 - Estimated Prophet
CD2 #06 - The Other One
CD2 #07 - Wharf Rat
CD2 #08 - Around And Around
CD2 #09 - Johnny B. Goode

Analyzed: Grateful Dead / July '78 - 1978-07-01 Arrowhead Stadium, Kansas City, MO
––––––––––––––––––––––––––––––––––––––––

DR Peak RMS Duration Track
––––––––––––––––––––––––––––––––––––––––
DR12 -0.20 dB -14.28 dB 7:02 01-Bertha
DR12 -0.20 dB -14.67 dB 6:30 02-Good Lovin'
DR14 -0.27 dB -17.13 dB 8:49 03-Tennessee Jed
DR13 -0.20 dB -16.72 dB 6:03 04-Jack Straw
DR14 -0.95 dB -18.35 dB 8:20 05-Friend Of The Devil
DR15 -1.56 dB -18.21 dB 2:56 06-Me And My Uncle
DR14 -0.23 dB -16.98 dB 5:16 07-Big River
DR14 -0.20 dB -16.70 dB 11:01 01-Terrapin Station
DR14 -0.20 dB -17.31 dB 8:56 02-Playing in The Band
DR18 -0.30 dB -23.51 dB 8:51 03-Rhythm Devils
DR12 -0.20 dB -17.59 dB 3:51 04-Space
DR13 -0.20 dB -16.27 dB 11:05 05-Estimated Prophet
DR13 -0.20 dB -15.77 dB 5:13 06-The Other One
DR13 -0.20 dB -17.04 dB 10:01 07-Wharf Rat
DR11 -0.20 dB -15.12 dB 8:25 08-Around And Around
DR12 -0.20 dB -14.73 dB 4:15 09-Johnny B. Goode
––––––––––––––––––––––––––––––––––––––––

Number of tracks: 16
Official DR value: DR13

Samplerate: 192000 Hz
Channels: 2
Bits per sample: 24
Bitrate: 4536 kbps
Codec: FLAC
================================================================================



July 3, 1978 - St. Paul Civic Center, St. Paul, MN
CD1 #01 - New Minglewood Blues
CD1 #02 - Loser
CD1 #03 - Looks Like Rain
CD1 #04 - Ramble On Rose
CD1 #05 - Mexicali Blues
CD1 #06 - Mama Tried
CD1 #07 - Peggy O
CD1 #08 - Cassidy
CD1 #09 - Deal
CD1 #10 - The Music Never Stopped
CD2 #01 - Scarlet Begonias
CD2 #02 - Fire On The Mountain
CD2 #03 - Dancing In The Street
CD2 #04 - Rhythm Devils
CD2 #05 - Not Fade Away
CD2 #06 - Stella Blue
CD2 #07 - Sugar Magnolia
CD2 #08 - Werewolves Of London

Analyzed: Grateful Dead / July '78 - 1978-07-03 St. Paul Civic Center, St. Paul, MN
––––––––––––––––––––––––––––––––––––––––

DR Peak RMS Duration Track
––––––––––––––––––––––––––––––––––––––––
DR14 -0.20 dB -17.25 dB 5:40 01-New Minglewood Blues
DR15 -0.52 dB -19.64 dB 7:35 02-Loser
DR16 -0.69 dB -22.03 dB 7:51 03-Looks Like Rain
DR15 -0.53 dB -18.82 dB 7:25 04-Ramble On Rose
DR15 -0.45 dB -18.85 dB 3:26 05-Mexicali Blues
DR14 -0.20 dB -17.91 dB 3:23 06-Mama Tried
DR14 -0.26 dB -19.89 dB 8:09 07-Peggy O
DR14 -0.20 dB -17.22 dB 5:08 08-Cassidy
DR11 -0.20 dB -14.99 dB 6:13 09-Deal
DR12 -0.20 dB -16.20 dB 8:20 10-The Music Never Stopped
DR14 -0.20 dB -18.00 dB 10:16 01-Scarlet Begonias
DR13 -0.20 dB -16.06 dB 9:39 02-Fire On The Mountain
DR13 -0.20 dB -16.99 dB 13:32 03-Dancing In The Street
DR17 -1.19 dB -23.52 dB 11:10 04-Rhythm Devils
DR12 -0.20 dB -14.83 dB 6:46 05-Not Fade Away
DR13 -0.20 dB -17.63 dB 10:51 06-Stella Blue
DR10 -0.20 dB -14.01 dB 9:19 07-Sugar Magnolia
DR11 -0.20 dB -15.50 dB 7:12 08-Werewolves Of London
––––––––––––––––––––––––––––––––––––––––

Number of tracks: 18
Official DR value: DR13

Samplerate: 192000 Hz
Channels: 2
Bits per sample: 24
Bitrate: 4634 kbps
Codec: FLAC
================================================================================



July 5, 1978 - Omaha Civic Auditorium, Omaha, NE
CD1 #01 - Sugaree
CD1 #02 - Beat It On Down The Line
CD1 #03 - They Love Each Other
CD1 #04 - Looks Like Rain
CD1 #05 - Dire Wolf
CD1 #06 - It's All Over Now
CD1 #07 - Candyman
CD1 #08 - Lazy Lightning
CD1 #09 - Supplication
CD1 #10 - Deal
CD1 #11 - Samson and Delilah
CD1 #12 - Ship Of Fools
CD2 #01 - Estimated Prophet
CD2 #02 - Eyes Of The World
CD2 #03 - Rhythm Devils
CD2 #04 - Space
CD2 #05 - Wharf Rat
CD2 #06 - Truckin'
CD2 #07 - Iko Iko
CD2 #08 - Around And Around
CD2 #09 - Promised Land

Analyzed: Grateful Dead / July '78 - 1978-07-05 Omaha Civic Auditorium, Omaha, NE
––––––––––––––––––––––––––––––––––––––––

DR Peak RMS Duration Track
––––––––––––––––––––––––––––––––––––––––
DR13 -0.97 dB -18.77 dB 9:51 01-Sugaree
DR13 -1.22 dB -17.05 dB 3:28 02-Beat It On Down The Line
DR15 -0.62 dB -18.56 dB 7:12 03-They Love Each Other
DR13 -0.20 dB -18.12 dB 7:59 04-Looks Like Rain
DR13 -0.83 dB -17.14 dB 3:49 05-Dire Wolf
DR13 -0.20 dB -15.73 dB 8:23 06-It's All Over Now
DR14 -0.59 dB -19.05 dB 6:41 07-Candyman
DR12 -0.20 dB -15.39 dB 3:27 08-Lazy Lightning
DR12 -0.20 dB -14.62 dB 5:32 09-Supplication
DR11 -0.20 dB -15.09 dB 5:59 10-Deal
DR13 -0.20 dB -15.01 dB 7:18 11-Samson and Delilah
DR14 -0.20 dB -18.16 dB 7:29 12-Ship Of Fools
DR13 -0.20 dB -16.21 dB 12:42 01-Estimated Prophet
DR14 -0.37 dB -18.07 dB 12:23 02-Eyes Of The World
DR17 -0.83 dB -22.47 dB 7:56 03-Rhythm Devils
DR13 -0.20 dB -18.14 dB 7:28 04-Space
DR12 -0.20 dB -15.91 dB 9:43 05-Wharf Rat
DR11 -0.20 dB -13.02 dB 7:29 06-Truckin'
DR12 0.00 dB -13.91 dB 7:23 07-Iko Iko
DR11 -0.20 dB -14.09 dB 8:27 08-Around And Around
DR10 -0.30 dB -13.34 dB 4:13 09-Promised Land
––––––––––––––––––––––––––––––––––––––––

Number of tracks: 21
Official DR value: DR13

Samplerate: 192000 Hz
Channels: 2
Bits per sample: 24
Bitrate: 4876 kbps
Codec: FLAC
================================================================================



July 7, 1978 - Red Rocks Amphitheatre, Morrison, CO
CD1 #01 - Jack Straw
CD1 #02 - Candyman
CD1 #03 - Me And My Uncle
CD1 #04 - Big River
CD1 #05 - Friend Of The Devil
CD1 #06 - Cassidy
CD1 #07 - Tennessee Jed
CD1 #08 - Passenger
CD1 #09 - Peggy O
CD1 #10 - The Music Never Stopped
CD2 #01 - Cold Rain And Snow
CD2 #02 - Beat It On Down The Line
CD2 #03 - Scarlet Begonias
CD2 #04 - Fire On The Mountain
CD3 #01 - Dancing In The Street
CD3 #02 - Rhythm Devils
CD3 #03 - Space
CD3 #04 - Not Fade Away
CD3 #05 - Black Peter
CD3 #06 - Around And Around
CD3 #07 - U.S. Blues
CD3 #08 - Johnny B. Goode

Analyzed: Grateful Dead / July '78 - 1978-07-07 Red Rocks Amphitheatre, Morrison, CO
––––––––––––––––––––––––––––––––––––––––

DR Peak RMS Duration Track
––––––––––––––––––––––––––––––––––––––––
DR11 -0.10 dB -15.81 dB 5:49 01-Jack Straw
DR13 -0.31 dB -18.16 dB 6:40 02-Candyman
DR13 -0.61 dB -16.57 dB 3:00 03-Me And My Uncle
DR12 -0.22 dB -15.82 dB 5:53 04-Big River
DR13 -0.78 dB -18.26 dB 8:36 05-Friend Of The Devil
DR12 -0.20 dB -15.99 dB 5:06 06-Cassidy
DR13 -0.20 dB -16.18 dB 9:11 07-Tennessee Jed
DR12 -0.19 dB -15.22 dB 5:31 08-Passenger
DR13 -0.57 dB -19.64 dB 9:10 09-Peggy O
DR11 -0.20 dB -14.26 dB 8:13 10-The Music Never Stopped
DR13 -1.21 dB -19.56 dB 7:26 01-Cold Rain And Snow
DR13 -1.22 dB -17.29 dB 3:38 02-Beat It On Down The Line
DR14 -1.23 dB -19.44 dB 10:18 03-Scarlet Begonias
DR13 -0.80 dB -18.01 dB 8:10 04-Fire On The Mountain
DR15 -0.53 dB -19.04 dB 8:57 01-Dancing In The Street
DR18 -0.64 dB -26.01 dB 10:12 02-Rhythm Devils
DR14 -1.38 dB -22.51 dB 6:09 03-Space
DR12 -0.20 dB -15.03 dB 11:04 04-Not Fade Away
DR15 -0.49 dB -20.81 dB 10:29 05-Black Peter
DR12 -0.50 dB -17.48 dB 8:44 06-Around And Around
DR13 -0.88 dB -18.20 dB 5:55 07-U.S. Blues
DR12 -1.04 dB -16.61 dB 4:16 08-Johnny B. Goode
––––––––––––––––––––––––––––––––––––––––

Number of tracks: 22
Official DR value: DR13

Samplerate: 192000 Hz
Channels: 2
Bits per sample: 24
Bitrate: 4483 kbps
Codec: FLAC
================================================================================



July 8, 1978 - Red Rocks Amphitheatre, Morrison, CO
CD1 #01 - Bertha
CD1 #02 - Good Lovin'
CD1 #03 - Dire Wolf
CD1 #04 - El Paso
CD1 #05 - It Must Have Been The Roses
CD1 #06 - New Minglewood Blues
CD1 #07 - Ramble On Rose
CD1 #08 - Promised Land
CD1 #09 - Deal
CD1 #10 - Samson and Delilah
CD1 #11 - Ship Of Fools
CD2 #01 - Estimated Prophet
CD2 #02 - The Other One
CD2 #03 - Eyes Of The World
CD2 #04 - Rhythm Devils
CD2 #05 - Space
CD2 #06 - Wharf Rat
CD2 #07 - Franklin's Tower
CD2 #08 - Sugar Magnolia
CD3 #01 - Terrapin Station
CD3 #02 - One More Saturday Night
CD3 #03 - Werewolves Of London

Analyzed: Grateful Dead / July '78 - 1978-07-08 Red Rocks Amphitheatre, Morrison, CO
––––––––––––––––––––––––––––––––––––––––

DR Peak RMS Duration Track
––––––––––––––––––––––––––––––––––––––––
DR13 -0.20 dB -17.06 dB 6:43 01-Bertha
DR12 -0.20 dB -15.72 dB 6:40 02-Good Lovin'
DR13 -0.20 dB -16.80 dB 4:07 03-Dire Wolf
DR15 -0.20 dB -20.09 dB 4:25 04-El Paso
DR14 -0.20 dB -19.90 dB 7:16 05-It Must Have Been The Roses
DR13 -0.20 dB -15.57 dB 6:09 06-New Minglewood Blues
DR14 -0.20 dB -18.45 dB 8:34 07-Ramble On Rose
DR13 -0.20 dB -15.93 dB 4:37 08-Promised Land
DR12 -0.20 dB -16.48 dB 6:29 09-Deal
DR14 -0.20 dB -16.98 dB 7:44 10-Samson and Delilah
DR13 -0.20 dB -18.11 dB 7:29 11-Ship Of Fools
DR13 -0.20 dB -18.22 dB 13:08 01-Estimated Prophet
DR13 -0.36 dB -16.46 dB 8:51 02-The Other One
DR14 -0.20 dB -17.89 dB 10:34 03-Eyes Of The World
DR18 -2.18 dB -24.35 dB 10:29 04-Rhythm Devils
DR11 -0.57 dB -16.51 dB 5:03 05-Space
DR13 -0.20 dB -17.84 dB 8:43 06-Wharf Rat
DR13 -0.20 dB -17.25 dB 10:39 07-Franklin's Tower
DR10 -0.20 dB -14.14 dB 9:31 08-Sugar Magnolia
DR12 -0.20 dB -16.89 dB 10:54 01-Terrapin Station
DR10 -0.20 dB -14.36 dB 5:13 02-One More Saturday Night
DR10 -0.20 dB -13.46 dB 6:44 03-Werewolves Of London
––––––––––––––––––––––––––––––––––––––––

Number of tracks: 22
Official DR value: DR13

Samplerate: 192000 Hz
Channels: 2
Bits per sample: 24
Bitrate: 4559 kbps
Codec: FLAC
================================================================================


Remastered by Jeffrey Norman.
Thanks to the Original customer!