Guitar Shorty - My Way Or The Highway (1991) [Reissue 2004] PS3 ISO + Hi-Res FLAC

Posted By: HDAtall
Guitar Shorty - My Way Or The Highway (1991) [Reissue 2004] PS3 ISO + Hi-Res FLAC

Guitar Shorty - My Way Or The Highway (1991) [Reissue 2004]
PS3 Rip | SACD ISO | DST64 2.0 & 5.1 > 1-bit/2.8224 MHz | 57:30 minutes | Scans included | 4,25 GB
or FLAC 2.0 Stereo (converted with foobar2000 to tracks) 24bit/88,2 kHz | Scans included | 1,32 GB
Features Stereo & Multichannel Surround Sound

Here we have a team; Shorty with his prodigious talents was the perfect centerpiece, Otis Grand with his guitar playing and production and band leading skills is simply beyond 'world class'. Add a superb band and a really good studio and you're in business. The album won a Handy Award. Further JSP collaborations with Otis Grand followed, resulting in stone classic albums with Phillip Walker, Joe Louis Walker and Joe Houston.

Until he joined forces with British guitarist Otis Grand's band and waxed this very credible comeback set, David "Guitar Shorty" Kearney's legacy was largely limited to a solitary single for Cobra and a handful of great but legendarily obscure followups for Los Angeles-based Pull Records during the late '50s. The acrobatic guitarist informed everyone he was alive and lively with this one, exhibiting his Guitar Slim roots on "Down Thru the Years" and slashing with a vengeance on "No Educated Woman" and the title cut (but shouldn't it have read "or the highway?").

Tracklist:

01. No Educated Woman
02. You Gave Me The Blues
03. Shorty Jumps In
04. Down Thru' The Years
05. Red Hot Mamma
06. Hot And Saucy
07. It's Too Late
08. Kick Out
09. My Way Or The Highway

Horns arranged by Otis Grand except horn arrragement on No Educated Woman by Peter Beck.

Produced by Otis Grand. Engineered by Andy Kay.
Recorded at Falconer Studio London, U.K.
Surround Sound and New Stereo Mix by Martin Atkinson at M.A.R.S. England.

Personnel
David 'Guitar Shorty' Kearney - vocals, guitar
Otis Grand - guitar
Dan Quinton - Fender bass
Daniel Strittmatter - drums
Tony Ashton - Hammond B3 organ
Mike Hobart - baritone sax
Peter Beck - tenor & alto sax
Lorenzo Parry - trumpet
Buzz Brown - harmonica on "8"

foobar2000 1.3.16 / Dynamic Range Meter 1.1.1

––––––––––––––––––––––––––––––––––––––––
Analyzed: Guitar Shorty / My Way Or The Highway
––––––––––––––––––––––––––––––––––––––––

DR Peak RMS Duration Track
––––––––––––––––––––––––––––––––––––––––
DR13 -6.00 dB -21.33 dB 6:00 01-No Educated Woman
DR12 -5.85 dB -20.52 dB 5:44 02-You Gave Me The Blues
DR11 -6.02 dB -19.15 dB 6:11 03-Shorty Jumps In
DR14 -6.15 dB -24.88 dB 5:30 04-Down Thru' The Years
DR13 -5.76 dB -20.37 dB 3:20 05-Red Hot Mamma
DR12 -5.95 dB -21.23 dB 6:36 06-Hot And Saucy
DR12 -5.97 dB -20.81 dB 11:28 07-It's Too Late
DR12 -5.16 dB -19.75 dB 6:39 08-Kick Out
DR11 -5.71 dB -19.74 dB 5:59 09-My Way Or The Highway
––––––––––––––––––––––––––––––––––––––––

Number of tracks: 9
Official DR value: DR12

Samplerate: 2822400 Hz / PCM Samplerate: 88200 Hz
Channels: 6
Bits per sample: 1
Bitrate: 16934 kbps
Codec: DST64
================================================================================

––––––––––––––––––––––––––––––––––––––––
Analyzed: Guitar Shorty / My Way Or The Highway
––––––––––––––––––––––––––––––––––––––––

DR Peak RMS Duration Track
––––––––––––––––––––––––––––––––––––––––
DR8 -6.63 dB -16.60 dB 6:00 01-No Educated Woman
DR8 -6.60 dB -16.04 dB 5:44 02-You Gave Me The Blues
DR7 -6.09 dB -15.10 dB 6:11 03-Shorty Jumps In
DR9 -7.11 dB -19.81 dB 5:30 04-Down Thru' The Years
DR8 -6.21 dB -15.63 dB 3:20 05-Red Hot Mamma
DR8 -6.16 dB -16.85 dB 6:37 06-Hot And Saucy
DR7 -6.50 dB -15.77 dB 11:29 07-It's Too Late
DR7 -6.09 dB -15.39 dB 6:39 08-Kick Out
DR7 -6.61 dB -15.08 dB 6:00 09-My Way Or The Highway
––––––––––––––––––––––––––––––––––––––––

Number of tracks: 9
Official DR value: DR8

Samplerate: 2822400 Hz / PCM Samplerate: 88200 Hz
Channels: 2
Bits per sample: 1
Bitrate: 5645 kbps
Codec: DST64


Thanks to grillbrill!
Uncompressed SACD ISO size > 4,02 GB
>