Guns N' Roses - Greatest Hits (Vinyl Reissue) (2004/2020) [24bit/96kHz]

Posted By: delpotro
Guns N' Roses - Greatest Hits (Vinyl Reissue) (2004/2020) [24bit/96kHz]

Guns N' Roses - Greatest Hits (Vinyl Reissue) (2004/2020)
Vinyl Rip | FLAC (tracks) 24-bit/96 kHz | Front Cover | Time - 81:35 minutes | 1,79 GB
Hard Rock | Label: Geffen Records

On September 25, 2020, Guns N' Roses' 2004, multi-platinum best of compilation Greatest Hits (Geffen/UMe) will be released on vinyl for the first time. Previously only available digitally and on CD, Greatest Hits will be pressed as a 2LP set on 180gram audiophile black vinyl, a 2LP set on silver colored vinyl with red and white splatter, plus a 2LP picture disc available exclusively through the band's official store. The vinyl edition of Greatest Hits will also feature the band's single "Shadow of Your Love," which hit No. 5 on the Mainstream Rock chart. Originally recorded in December 1986, "Shadow of Your Love" made its debut on the 2018 box set Appetite For Destruction.

In 2004, Greatest Hits reached No. 3 on the Billboard 200 and in 2007 hit No. 1 on the Catalog Albums chart. Featuring all eight of the band's Top 40 Billboard Hot 100 tracks (six of them RIAA-certified "gold," i.e., sales of more than 500,000 units), Greatest Hits spans the group's five album releases, including their cover of the Rolling Stones' "Sympathy For The Devil" for the 1995 film Interview With The Vampire.

The first full-length album from Guns N' Roses, 1987's Appetite For Destruction, is one of the most popular hard rock albums in history and has been on the Billboard Top 200 albums or Top Pop Catalog chart for a total of 746 weeks. Certified 18 times platinum in the U.S., Appetite For Destruction charted No. 1 for five weeks and includes three Top 10s: the anthem "Welcome To The Jungle" (No. 7), the frenzied rocker "Paradise City" (No. 5) plus their platinum selling No. 1 single "Sweet Child O' Mine." The video for "Sweet Child O' Mine" recently hit over 1 billion views on YouTube.

1988's G N'R Lies, comprised of songs from the group's independently-released 1986 EP Live?!*@Like A Suicide plus new studio recordings, followed Appetite For Destruction up the charts, peaking at No. 2 on the Billboard 200 albums chart. The Grammy®-nominated album (for Best Hard Rock Performance) was five times platinum (each platinum level connotes sales of more than one million units) and claimed the gold No. 4-charting ballad "Patience."

Then, on September 17, 1991, with one of the most anticipated releases ever in music, both Use Your Illusion I and Use Your Illusion II debuted. Use Your Illusion I featured two gold singles with "November Rain" (No. 3) and "Don't Cry" (No. 10) plus another Top 40 with "Live And Let Die" (No. 33). Use Your Illusion II boasted another gold hit with the previously-released single "You Could Be Mine" (No. 29), heard in the film Terminator II: Judgement Day. Each of the Use Your Illusion albums went seven times platinum with Use Your Illusion I going to No. 2 and Use Your Illusion II hitting No. 1. Use Your Illusion I was Grammy® nominated for Best Hard Rock Performance as was the Wings cover "Live And Let Die." Greatest Hits also culls from II "Yesterdays," "Civil War" and GN'R's take on Bob Dylan's "Knockin' On Heaven's Door." Both Use Your Illusion I and Use Your Illusion II have sold over seven million copies to date.

A collection of Guns N' Roses covers of classic, mainly punk, songs that had influenced the bandmembers since their early days, 1993's The Spaghetti Incident? hit No. 4 and is certified platinum. Included on Greatest Hits are its renditions of The Dead Boys' 1978 track "Ain't It Fun" and an unlikely cover of The Skyliners' '50s doo-wop gem "Since I Don't Have You."

Tracklist:
01. Welcome To The Jungle
02. Sweet Child O' Mine
03. Shadow Of Your Love
04. Patience
05. Paradise City
06. Knockin' On Heaven's Door
07. Civil War
08. You Could Be Mine
09. Don't Cry (Original)
10. November Rain
11. Live And Let Die
12. Yesterdays
13. Ain't It Fun
14. Since I Don't Have You
15. Sympathy For The Devil

foobar2000 1.4.1 / Dynamic Range Meter 1.1.1
log date: 2021-05-24 11:01:41

––––––––––––––––––––––––––––––––––––––––
Analyzed: Guns N' Roses / Greatest Hits
––––––––––––––––––––––––––––––––––––––––

DR Peak RMS Duration Track
––––––––––––––––––––––––––––––––––––––––
DR12 -0.05 dB -13.41 dB 4:30 01-Welcome To The Jungle
DR11 -0.05 dB -13.34 dB 5:54 02-Sweet Child O' Mine
DR11 -1.34 dB -13.19 dB 3:03 03-Shadow Of Your Love
DR13 -4.04 dB -21.52 dB 5:52 04-Patience
DR11 -0.05 dB -12.90 dB 6:45 05-Paradise City
DR11 -0.05 dB -13.64 dB 5:34 06-Knockin' On Heaven's Door
DR11 -1.07 dB -14.39 dB 7:36 07-Civil War
DR11 -0.49 dB -12.46 dB 5:41 08-You Could Be Mine
DR11 -0.05 dB -13.90 dB 4:42 09-Don't Cry (Original)
DR11 -0.05 dB -14.24 dB 8:52 10-November Rain
DR11 -0.57 dB -14.14 dB 2:59 11-Live And Let Die
DR10 -0.77 dB -13.94 dB 3:13 12-Yesterdays
DR11 -0.05 dB -13.29 dB 5:05 13-Ain't It Fun
DR11 -1.04 dB -14.02 dB 4:17 14-Since I Don't Have You
DR11 -0.18 dB -13.03 dB 7:33 15-Sympathy For The Devil
––––––––––––––––––––––––––––––––––––––––

Number of tracks: 15
Official DR value: DR11

Samplerate: 96000 Hz
Channels: 2
Bits per sample: 24
Bitrate: 3258 kbps
Codec: FLAC
================================================================================


VPI HM 16.5 Record Cleaning Machine
Zerostat Anti-Static Pistol
Technics SL-1210 MKII Turntable
Origin Live OL1 Fully Modified Tone Arm
Audio Technica AT33PTG / II Dual Moving Coil Cartridge
Dennon AU-300LC Step Up Transformer
Funk Firm 5mm Achromat High Performance Mat
TTW Audio Outer Ring Extreme V2 Periphery Clamp
TTW TTProLight Center Weight .8 Lbs
Custom built, all tube phono stage
Steinberg UR22 USB @ 24 bit / 192khz
JBL LSR series studio monitors / subwoofer for playback listening
iZotope RX Advanced for recording software
iZotope RX Advanced for any cleaning needed (all done manually)
iZotope RX Advanced for re-sampling to 24/96 & 16/44
Trader's Little Helper for SBE correction
mp3tag for tagging & re-naming files

Thanks to the Original customer!