Hall & Oates - Rock 'N Soul Part 1 (1983) [MFSL 2015] PS3 ISO + Hi-Res FLAC

Posted By: HDAtall
Hall & Oates - Rock 'N Soul Part 1 (1983) [MFSL 2015] PS3 ISO + Hi-Res FLAC

Hall & Oates - Rock 'N Soul Part 1 (1983) [MFSL 2015]
PS3 Rip | SACD ISO | DSD64 2.0 > 1-bit/2.8224 MHz | 48:18 minutes | Scans included | 1,38 GB
or FLAC (converted with foobar2000 to tracks) 24bit/96 kHz | Full Scans included | 1,17 GB
Mobile Fidelity Sound Lab # UDSACD 2157

Rock 'n Soul Part 1 (also titled Greatest Hits – Rock 'n Soul Part 1) is a greatest hits album by American musical duo Hall & Oates, credited as "Daryl Hall John Oates" on the album cover. Released by RCA Records in October 1983, the album featured mostly hit singles recorded by the duo and released by RCA, along with one single from the duo's period with Atlantic Records and two previously unreleased songs recorded earlier in the year: "Say It Isn't So" and "Adult Education".

Released at the peak of Hall & Oates' popularity in the early '80s, 1983's Rock 'n Soul, Pt. 1: Greatest Hits effectively chronicles the time when the duo could do no wrong – namely, the period between 1980's Voices and 1982's H2O, which includes only one other album, 1981's excellent Private Eyes. While this reaches back to their early-'70s work for Atlantic for "She's Gone," the only big hit they had at the label, and also has their two other big hits from that decade, "Sara Smile" and "Rich Girl," the bulk of Rock 'n Soul, Pt. 1 derives from those three albums: "Kiss on My List," "You Make My Dreams," "Private Eyes," "I Can't Go for That (No Can Do)," "Maneater," and "One on One." That's a long list of singles, but it still misses some terrific singles from this era, including "How Does It Feel to Be Back," "Did It in a Minute," "Family Man," and "You've Lost That Lovin' Feeling" (the latter two were included as bonus tracks on RCA/Legacy's 2006 reissue). As good as those songs may be, Rock 'n Soul, Pt. 1 doesn't necessarily miss them: with the exception of a live version of "Wait for Me" (good, but not essential), this is the cream of the crop of Hall & Oates' best period, and it makes for a tight, excellent listen, and it's bolstered by the sublime "Say It Isn't So" and the good rocker "Adult Education." Latter-day compilations like 2001's Very Best of Daryl Hall & John Oates and 2004's Ultimate (which was reissued a year later under the title Essential) may cover their entire career in more detail – and the duo certainly made great music before and after this era – but as a snapshot of Hall & Oates at their finest, Rock 'n Soul, Pt. 1: Greatest Hits can't be beat.

Tracklist:

01 - Say It Isn't So
02 - Sara Smile
03 - She's Gone
04 - Rich Girl
05 - Kiss On My List
06 - You Make My Dreams
07 - Private Eyes
08 - Adult Education
09 - I Can't Go For That (No Can Do)
10 - Maneater
11 - One On One
12 - Wait For Me (Live Version)

Mastered by Rob LoVerde, Assisted by Shawn R. Britton at Mobile Fidelity Sound Lab, Sebastopol, CA.

foobar2000 1.4.8 / Dynamic Range Meter 1.1.1

––––––––––––––––––––––––––––––––––––––––
Analyzed: DARYL HALL JOHN OATES / Rock 'N Soul Part 1
––––––––––––––––––––––––––––––––––––––––

DR Peak RMS Duration Track
––––––––––––––––––––––––––––––––––––––––
DR11 -6.13 dB -19.11 dB 4:23 01-Say It Isn't So
DR17 -6.09 dB -25.49 dB 3:10 02-Sara Smile
DR11 -5.83 dB -20.83 dB 3:27 03-She's Gone
DR12 -6.13 dB -19.95 dB 2:25 04-Rich Girl
DR14 -5.97 dB -21.15 dB 3:54 05-Kiss On My List
DR14 -6.04 dB -21.99 dB 3:11 06-You Make My Dreams
DR11 -6.05 dB -19.88 dB 3:37 07-Private Eyes
DR12 -6.16 dB -20.78 dB 5:24 08-Adult Education
DR13 -6.31 dB -20.78 dB 3:44 09-I Can't Go For That (No Can Do)
DR14 -6.17 dB -21.36 dB 4:32 10-Maneater
DR12 -5.98 dB -20.18 dB 4:17 11-One On One
DR12 -5.93 dB -21.17 dB 6:13 12-Wait For Me (Live Version)
––––––––––––––––––––––––––––––––––––––––

Number of tracks: 12
Official DR value: DR13

Samplerate: 2822400 Hz / PCM Samplerate: 176400 Hz
Channels: 2
Bits per sample: 1
Bitrate: 5645 kbps
Codec: DSD64


Thanks to PS³SACD!
Uncompressed SACD ISO size > 1,94 GB
>