Handel - The Coronation Of King George II (1727) [2x SACD, 2001] {2.0 & 5.1} PS3 ISO + FLAC

Posted By: HDAtall
Handel - The Coronation Of King George II (1727) [2x SACD, 2001] {2.0 & 5.1} PS3 ISO + FLAC

The King's Consort, Choir of the King's Choir, Robert King -
- The Coronation Of King George II (1727) [2x SACD, 2001]

PS3 Rip | SACD ISO | DST64 2.0 & 5.0 > 1-bit/2.8224 MHz | 100:31 mins | Scans included | 6,24 GB
or FLAC 2.0 Stereo (converted with foobar2000 to tracks) 24bit/88,2 kHz | Scans included | 1,96 GB
Handel's Coronation Anthems & Ceremonial Music by Purcell, Blow, Tallis, Gibbons & others
Label: Hyperion | Catalog No.: SACDA67286

“Why present just Handel’s Coronation Anthems for King George II when you can present the whole Coronation?” seems to be the proposition that underlies this two-disc set, entitled The Coronation of King George II, 1727. And, thrillingly performed by Robert King directing the King’s Consort and the Choir of the King’s Consort, there seems no good reason not to, and every good reason to, do just that. King, who has led many stirring recordings of Handel’s oratorios in his time, turns in splendid performances of the four Coronation Anthems, along with superb performances of ceremonial choral music by Tallis, Purcell, Gibbons, Blow, Farmer, and Child. But those are just the highlights of the recording, which opens with the tolling of the bells of Westminster Abbey and closes with the tolling of the bells of London and includes along the way trumpet fanfares led by the inestimable Crispian Steele-Perkins, drum processions led by Charles Fullbrook, spoken acclamations by Andrew Carwood as the Archbishop of Canterbury, and shouts of praise by the assembled multitudes. This set may not be for everyone — enemies of the monarchy need not tune in — and may not be for every day — a steady diet of fanfares and processions may be much for some listeners — but when you are in the mood to hear royalty enthroned, this set cannot be surpassed.

Tracklist -

Disc One:
01. Tolling bell of Westminster Abbey
02. The Preparations- Trumpet fanfare
03. The Preparations- Drum procession
04. The Preparations- Vivat
05. The Preparations- Trumpet fanfare
06. The Preparations- O Lord, grant the King a long life
07. The Procession - A Grand Intrumental Procession
08. The Entrance - I was glad when they said unto me
09. The Recognition - God save King George
10. The Recognition - Trumpet fanfare
11. The Recognition - Let thy hand be strengthened
12. The Recognition - Let thy hand be strengthened
13. The Recognition - Let thy hand be strengthened
14. The Litany - O God, the Father of Heaven
15. The Anointing - Come Holy Ghost
16. The Anointing - Zadok the Priest

Disc Two:
01. The Investiture - Trumpet fanfare
02. The Investiture - Behold, O God, our defender
03. The Crowning - Trumpet fanfare
04. The Crowning - God save the King
05. The Crowning - The King shall rejoice
06. The Crowning - The King shall rejoice
07. The Crowning - The King shall rejoice
08. The Crowning - The King shall rejoice
09. Te Deum - Te Deum (from the second Service)
10. The Inthronisation - Trumpet fanfare
11. The Homage - God spake sometime in visions
12. The Homage - Drums
13. The Homage - Trumpet fanfare
14. The Homage - God save King George
15. The Coronation of the Queen - My heart is inditing
16. The Coronation of the Queen - My heart is inditing
17. The Coronation of the Queen - My heart is inditing
18. The Coronation of the Queen - My heart is inditing
19. The Recessional - Trumpet fanfare
20. The Recessional - March
21. The Recessional - Trumpet fanfare
22. The Recessional - Drum Procession
23. The bells of London

foobar2000 1.2.5 / Dynamic Range Meter 1.1.1

––––––––––––––––––––––––––––––––––––––––
Analyzed: Choir Of The King's Consort - The King's Consort / The Coronation of King George II (Disc One)
––––––––––––––––––––––––––––––––––––––––

DR Peak RMS Duration Track
––––––––––––––––––––––––––––––––––––––––
DR13 -24.03 dB -46.18 dB 0:49 01-Tolling bell of Westminster Abbey
DR11 -27.68 dB -48.35 dB 0:39 02-The Preparations- Trumpet fanfare
DR13 -6.38 dB -30.07 dB 1:33 03-The Preparations- Drum procession
DR17 -26.91 dB -48.68 dB 0:06 04-The Preparations- Vivat
DR11 -22.92 dB -41.79 dB 0:26 05-The Preparations- Trumpet fanfare
DR12 -23.41 dB -48.90 dB 1:41 06-The Preparations- O Lord, grant the King a long life
DR13 -15.38 dB -35.69 dB 5:12 07-The Procession - A Grand Intrumental Procession
DR13 -16.36 dB -38.72 dB 4:34 08-The Entrance - I was glad when they said unto me
DR13 -20.96 dB -49.06 dB 0:53 09-The Recognition - God save King George
DR9 -21.45 dB -39.78 dB 0:14 10-The Recognition - Trumpet fanfare
DR13 -14.51 dB -35.78 dB 3:07 11-The Recognition - Let thy hand be strengthened
DR13 -20.72 dB -42.96 dB 3:44 12-The Recognition - Let thy hand be strengthened
DR13 -14.40 dB -33.70 dB 2:12 13-The Recognition - Let thy hand be strengthened
DR13 -29.35 dB -50.02 dB 6:51 14-The Litany - O God, the Father of Heaven
DR12 -8.27 dB -28.32 dB 3:00 15-The Anointing - Come Holy Ghost
DR13 -7.69 dB -30.47 dB 6:00 16-The Anointing - Zadok the Priest
––––––––––––––––––––––––––––––––––––––––

Number of tracks: 16
Official DR value: DR13

Samplerate: 2822400 Hz / PCM Samplerate: 88200 Hz
Channels: 6
Bits per sample: 24
Bitrate: 16934 kbps
Codec: DST64
====================================================================

––––––––––––––––––––––––––––––––––––––––
Analyzed: Choir Of The King's Consort - The King's Consort / The Coronation of King George II (Disc One)
––––––––––––––––––––––––––––––––––––––––

DR Peak RMS Duration Track
––––––––––––––––––––––––––––––––––––––––
DR11 -15.71 dB -34.86 dB 0:27 01-The Investiture - Trumpet fanfare
DR13 -14.94 dB -36.08 dB 2:04 02-The Investiture - Behold, O God, our defender
DR11 -15.43 dB -34.83 dB 0:25 03-The Crowning - Trumpet fanfare
DR14 -10.62 dB -30.37 dB 0:14 04-The Crowning - God save the King
DR12 -12.29 dB -31.88 dB 2:43 05-The Crowning - The King shall rejoice
DR14 -11.55 dB -34.97 dB 3:18 06-The Crowning - The King shall rejoice
DR12 -12.34 dB -31.73 dB 2:49 07-The Crowning - The King shall rejoice
DR12 -10.06 dB -30.56 dB 2:47 08-The Crowning - The King shall rejoice
DR14 -13.14 dB -36.45 dB 10:41 09-Te Deum - Te Deum (from the second Service)
DR10 -18.74 dB -37.01 dB 0:27 10-The Inthronisation - Trumpet fanfare
DR14 -11.92 dB -34.67 dB 13:18 11-The Homage - God spake sometime in visions
DR9 -10.29 dB -29.57 dB 0:21 12-The Homage - Drums
DR11 -17.54 dB -35.93 dB 0:25 13-The Homage - Trumpet fanfare
DR9 -11.70 dB -29.69 dB 0:15 14-The Homage - God save King George
DR14 -11.46 dB -35.77 dB 2:56 15-The Coronation of the Queen - My heart is inditing
DR13 -13.06 dB -35.89 dB 3:37 16-The Coronation of the Queen - My heart is inditing
DR14 -13.49 dB -37.01 dB 3:22 17-The Coronation of the Queen - My heart is inditing
DR13 -8.75 dB -32.30 dB 3:03 18-The Coronation of the Queen - My heart is inditing
DR11 -16.15 dB -38.03 dB 0:13 19-The Recessional - Trumpet fanfare
DR12 -16.34 dB -35.17 dB 1:45 20-The Recessional - March
DR9 -22.24 dB -41.76 dB 0:36 21-The Recessional - Trumpet fanfare
DR11 -20.28 dB -38.64 dB 1:15 22-The Recessional - Drum Procession
DR11 -19.57 dB -35.98 dB 2:30 23-The bells of London
––––––––––––––––––––––––––––––––––––––––

Number of tracks: 23
Official DR value: DR12

Samplerate: 2822400 Hz / PCM Samplerate: 88200 Hz
Channels: 6
Bits per sample: 24
Bitrate: 16934 kbps
Codec: DST64
==================================================================================

––––––––––––––––––––––––––––––––––––––––
Analyzed: Choir Of The King's Consort - The King's Consort / The Coronation of King George II (Disc Two)
––––––––––––––––––––––––––––––––––––––––

DR Peak RMS Duration Track
––––––––––––––––––––––––––––––––––––––––
DR14 -23.79 dB -41.27 dB 0:49 01-Tolling bell of Westminster Abbey
DR11 -26.82 dB -43.62 dB 0:39 02-The Preparations- Trumpet fanfare
DR13 -4.93 dB -25.48 dB 1:33 03-The Preparations- Drum procession
DR16 -27.00 dB -44.27 dB 0:06 04-The Preparations- Vivat
DR11 -22.35 dB -37.07 dB 0:26 05-The Preparations- Trumpet fanfare
DR12 -23.70 dB -44.14 dB 1:41 06-The Preparations- O Lord, grant the King a long life
DR13 -14.19 dB -31.13 dB 5:12 07-The Procession - A Grand Intrumental Procession
DR13 -15.99 dB -34.36 dB 4:34 08-The Entrance - I was glad when they said unto me
DR14 -20.04 dB -44.57 dB 0:53 09-The Recognition - God save King George
DR9 -20.19 dB -35.29 dB 0:14 10-The Recognition - Trumpet fanfare
DR13 -13.43 dB -31.33 dB 3:07 11-The Recognition - Let thy hand be strengthened
DR14 -18.01 dB -38.50 dB 3:44 12-The Recognition - Let thy hand be strengthened
DR12 -12.87 dB -29.21 dB 2:12 13-The Recognition - Let thy hand be strengthened
DR13 -27.94 dB -45.46 dB 6:51 14-The Litany - O God, the Father of Heaven
DR13 -6.60 dB -23.53 dB 3:00 15-The Anointing - Come Holy Ghost
DR13 -6.25 dB -25.89 dB 6:00 16-The Anointing - Zadok the Priest
––––––––––––––––––––––––––––––––––––––––

Number of tracks: 16
Official DR value: DR13

Samplerate: 2822400 Hz / PCM Samplerate: 88200 Hz
Channels: 2
Bits per sample: 24
Bitrate: 5645 kbps
Codec: DST64
================================================================================

––––––––––––––––––––––––––––––––––––––––
Analyzed: Choir Of The King's Consort - The King's Consort / The Coronation of King George II (Disc Two)
––––––––––––––––––––––––––––––––––––––––

DR Peak RMS Duration Track
––––––––––––––––––––––––––––––––––––––––
DR12 -15.30 dB -29.61 dB 0:27 01-The Investiture - Trumpet fanfare
DR13 -14.55 dB -31.73 dB 2:04 02-The Investiture - Behold, O God, our defender
DR12 -13.70 dB -30.05 dB 0:25 03-The Crowning - Trumpet fanfare
DR14 -8.64 dB -25.70 dB 0:14 04-The Crowning - God save the King
DR12 -10.79 dB -27.47 dB 2:43 05-The Crowning - The King shall rejoice
DR15 -10.22 dB -30.57 dB 3:18 06-The Crowning - The King shall rejoice
DR12 -9.83 dB -27.29 dB 2:49 07-The Crowning - The King shall rejoice
DR12 -9.34 dB -26.09 dB 2:47 08-The Crowning - The King shall rejoice
DR15 -11.99 dB -31.97 dB 10:41 09-Te Deum - Te Deum (from the second Service)
DR11 -18.19 dB -32.53 dB 0:27 10-The Inthronisation - Trumpet fanfare
DR14 -11.41 dB -30.32 dB 13:18 11-The Homage - God spake sometime in visions
DR10 -8.02 dB -25.44 dB 0:21 12-The Homage - Drums
DR12 -16.69 dB -31.46 dB 0:25 13-The Homage - Trumpet fanfare
DR10 -8.63 dB -25.08 dB 0:15 14-The Homage - God save King George
DR15 -10.49 dB -31.32 dB 2:56 15-The Coronation of the Queen - My heart is inditing
DR13 -11.65 dB -31.52 dB 3:37 16-The Coronation of the Queen - My heart is inditing
DR14 -12.95 dB -32.66 dB 3:22 17-The Coronation of the Queen - My heart is inditing
DR14 -8.11 dB -27.91 dB 3:03 18-The Coronation of the Queen - My heart is inditing
DR11 -15.80 dB -33.45 dB 0:13 19-The Recessional - Trumpet fanfare
DR11 -15.28 dB -30.62 dB 1:45 20-The Recessional - March
DR9 -19.88 dB -37.18 dB 0:36 21-The Recessional - Trumpet fanfare
DR11 -18.96 dB -34.11 dB 1:15 22-The Recessional - Drum Procession
DR11 -18.20 dB -31.50 dB 2:30 23-The bells of London
––––––––––––––––––––––––––––––––––––––––

Number of tracks: 23
Official DR value: DR12

Samplerate: 2822400 Hz / PCM Samplerate: 88200 Hz
Channels: 2
Bits per sample: 24
Bitrate: 5645 kbps
Codec: DST64


Thanks to jasondonovan!
Uncompressed SACD ISO size > 2,34 + 3,53 GB
>