Hank Jones, Christian McBride, Jimmy Cobb - West Of 5th (2006) [2.0 & 4.0] PS3 ISO + FLAC {RE-UP}

Posted By: HDAtall
Hank Jones, Christian McBride, Jimmy Cobb - West Of 5th (2006) [2.0 & 4.0] PS3 ISO + FLAC {RE-UP}

Hank Jones / Christian McBride / Jimmy Cobb - West Of 5th (2006) [2.0 & 4.0]
PS3 Rip | SACD ISO | DST64 2.0 & 5.1 > 1-bit/2.8224 MHz | 62:17 minutes | Scans included | 2,74 GB
or FLAC 2.0 Stereo (converted with foobar2000 to tracks) 24bit/88,2 kHz | Scans included | 1,14 GB
Mainstream Jazz, Piano Jazz | Chesky Records | Features Stereo and Multichannel surround sound

Veteran pianist Hank Jones is hardly slowing down at the age of 87, as heard on this beautifully recorded session in early 2006. With drummer Jimmy Cobb (who sticks to brushes) and Christian McBride rounding out his potent trio, Jones keeps old warhorses like "On Green Dolphin Street" fresh, giving ample space to his partner and adding a humorous detour into Billy Strayhorn's "Rain Check." Other highlights include his elegant treatment of his late brother Thad's timeless ballad "A Child Is Born" and a hard driving take of Charlie Parker's "Confirmation." McBride shows depth beyond his years with strong accompaniment and swinging solos. This Hybrid Super Audio CD, recorded without any gimmickry such as remixing or compression, enables the listener to enjoy these intimate performances as if sitting in the studio with the players.

Tracklist:

01. On Green Dolphin Street
02. Mr. Walker
03. Speak Low
04. A Child is Born
05. If I Were a Bell
06. Billy's Bounce
07. Lotus Blossom
08. Confirmation
09. We'll Be Together Again
10. Stella By Starlight
11. Eleanor

Produced by David Chesky & Eleana Steinberg-Tee.

Hank Jones: piano
Christian McBride: bass
Jimmy Cobb: drums

foobar2000 1.1.18 / Dynamic Range Meter 1.1.1

––––––––––––––––––––––––––––––––––––––––
Analyzed: Hank Jones, Christian McBride, Jimmy Cobb / West Of 5th
––––––––––––––––––––––––––––––––––––––––

DR Peak RMS Duration Track
––––––––––––––––––––––––––––––––––––––––
DR13 -8.08 dB -33.31 dB 5:22 01-On Green Dolphin Street
DR12 -8.58 dB -31.96 dB 4:26 02-Mr. Walker
DR12 -8.05 dB -29.92 dB 8:00 03-Speak Low
DR11 -11.92 dB -34.22 dB 5:28 04-A Child is Born
DR12 -8.97 dB -31.91 dB 5:51 05-If I Were a Bell
DR13 -6.99 dB -32.34 dB 5:18 06-Billy's Bounce
DR11 -12.98 dB -34.47 dB 6:27 07-Lotus Blossom
DR12 -7.93 dB -28.71 dB 4:53 08-Confirmation
DR12 -11.82 dB -35.01 dB 6:53 09-We'll Be Together Again
DR12 -7.14 dB -29.41 dB 4:50 10-Stella By Starlight
DR11 -13.30 dB -33.91 dB 4:49 11-Eleanor
––––––––––––––––––––––––––––––––––––––––

Number of tracks: 11
Official DR value: DR12

Samplerate: 2822400 Hz / PCM Samplerate: 88200 Hz
Channels: 5
Bits per sample: 24
Bitrate: 14112 kbps
Codec: DST64
================================================================================

––––––––––––––––––––––––––––––––––––––––
Analyzed: Hank Jones, Christian McBride, Jimmy Cobb / West Of 5th
––––––––––––––––––––––––––––––––––––––––

DR Peak RMS Duration Track
––––––––––––––––––––––––––––––––––––––––
DR17 -8.08 dB -29.96 dB 5:22 01-On Green Dolphin Street
DR16 -8.58 dB -28.71 dB 4:26 02-Mr. Walker
DR16 -8.05 dB -26.64 dB 8:00 03-Speak Low
DR15 -11.92 dB -30.94 dB 5:28 04-A Child is Born
DR16 -8.97 dB -28.67 dB 5:51 05-If I Were a Bell
DR17 -6.99 dB -29.05 dB 5:18 06-Billy's Bounce
DR14 -12.98 dB -31.14 dB 6:27 07-Lotus Blossom
DR15 -7.93 dB -25.38 dB 4:53 08-Confirmation
DR16 -11.82 dB -31.71 dB 6:53 09-We'll Be Together Again
DR15 -7.14 dB -26.09 dB 4:50 10-Stella By Starlight
DR14 -13.30 dB -30.57 dB 4:49 11-Eleanor
––––––––––––––––––––––––––––––––––––––––

Number of tracks: 11
Official DR value: DR15

Samplerate: 2822400 Hz / PCM Samplerate: 88200 Hz
Channels: 2
Bits per sample: 24
Bitrate: 5645 kbps
Codec: DST64


Thanks to SergeyVP!
Uncompressed SACD ISO size > 2,6 GB