Tags
Language
Tags

Herb Ellis, Freddie Green - Rhythm Willie (1975) [DVD-Audio Reissue 2002] (Hi-Res FLAC 24 bit/96kHz)

Posted By: HDV
Herb Ellis, Freddie Green - Rhythm Willie (1975) [DVD-Audio Reissue 2002] (Hi-Res FLAC 24 bit/96kHz)

Herb Ellis, Freddie Green - Rhythm Willie (1975/2002)
FLAC (tracks) 24 bit/96 kHz | Time - 37:21 minutes | 778 MB
Source: DVD-Audio, Reissue 2002 | Artwork: Full Scans

Guitarist Herb Ellis is joined by rhythm guitarist Freddie Green, pianist Ross Tompkins, bassist Ray Brown and drummer Jake Hanna for this lightly swinging but uneventful program which has been reissued on CD. Since Green as usual does not solo, his contribution is purely as a background player. Ellis, Tompkins and Brown are the lead voices on a variety of swing tunes; best are "It Had To Be You," "A Smooth One" and "When My Dream Boat Comes Home".

Tracklist:

01 - It Had To Be You
02 - Rhythm Willie
03 - Gee Baby, Ain't I Good To You
04 - A Smooth One
05 - When My Dreamboat Comes Home
06 - Conversations
07 - I Want A Little Girl
08 - Orange, Brown And Green

Produced by Carl E. Jefferson.
Recorded & Mixed by Phil Edwards.

Musicians:
Herb Ellis - guitar
Freddie Green - rhythm guitar
Ray Brown - bass
Ross Tomkins - piano
Jake Hanna - drums

Analyzed: Herb Ellis, Freddie Green / Rhythm Willie
––––––––––––––––––––––––––––––––––––––––

DR Peak RMS Duration Track
––––––––––––––––––––––––––––––––––––––––
DR12 -0.08 dB -16.43 dB 4:12 01-It Had To Be You
DR12 -1.36 dB -15.77 dB 5:56 02-Rhythm Willie
DR12 -1.44 dB -18.07 dB 3:40 03-Gee Baby, Ain't I Good To You
DR12 -0.07 dB -15.06 dB 5:09 04-A Smooth One
DR12 -0.26 dB -15.09 dB 4:25 05-When My Dreamboat Comes Home
DR12 -0.07 dB -14.87 dB 4:08 06-Conversations
DR12 -0.07 dB -16.20 dB 4:27 07-I Want A Little Girl
DR12 -0.07 dB -15.13 dB 5:24 08-Orange, Brown And Green
––––––––––––––––––––––––––––––––––––––––

Number of tracks: 8
Official DR value: DR12

Samplerate: 96000 Hz
Channels: 2
Bits per sample: 24
Bitrate: 2838 kbps
Codec: FLAC
================================================================================


All files were fully tagged.