Herbie Hancock - Man-Child (1975/2013) [Official Digital Download 24-bit/96kHz]

Posted By: HDV
Herbie Hancock - Man-Child (1975/2013) [Official Digital Download 24-bit/96kHz]

Herbie Hancock - Man-Child (1975/2013)
FLAC (tracks) 24-bit/96 kHz | Time - 45:20 minutes | 972 MB
Studio Master, Official Digital Download | Artwork: Front cover

Released in 1975, Man-Child is one of Herbie Hancock's most funk-influenced albums. It was produced by David Rubinson and Herbie Hancock, and was the final album featuring the core group of the Headhunters (Paul Jackson, Bill Summers, Harvey Mason, Bennie Maupin, and Mike Clark).

Perhaps the funkiest album of Herbie Hancock's early- to mid-'70s jazz/funk/fusion era, Man-Child starts off with the unforgettable "Hang Up Your Hang Ups," and the beat just keeps coming until the album's end. "Sun Touch" and "Bubbles" are slower, but funky nonetheless. Hancock is the star on his arsenal of keyboards, but guitarist Wah Wah Watson's presence is what puts a new sheen on this recording, distinguishing it from its predecessors, Head Hunters and Thrust. Others among the all-star cast of soloists and accompanists include Wayne Shorter on soprano sax, Stevie Wonder on chromatic harmonica, and longtime Hancock cohort Bennie Maupin on an arsenal of woodwinds.

Tracklist:

01 - Hang Up Your Hang Ups
02 - Sun Touch
03 - The Traitor
04 - Bubbles
05 - Steppin' In It
06 - Heartbeat

Analyzed: Herbie Hancock / Man-Child
––––––––––––––––––––––––––––––––––––––––

DR Peak RMS Duration Track
––––––––––––––––––––––––––––––––––––––––
DR12 0.00 dB -13.66 dB 7:29 01-Hang Up Your Hang Ups
DR15 0.00 dB -16.88 dB 5:12 02-Sun Touch
DR13 0.00 dB -14.36 dB 9:38 03-The Traitor
DR14 -0.28 dB -16.13 dB 9:02 04-Bubbles
DR13 0.00 dB -13.77 dB 8:42 05-Steppin' In It
DR12 -0.32 dB -13.80 dB 5:16 06-Heartbeat
––––––––––––––––––––––––––––––––––––––––

Number of tracks: 6
Official DR value: DR13

Samplerate: 96000 Hz
Channels: 2
Bits per sample: 24
Bitrate: 2850 kbps
Codec: FLAC
================================================================================


Thanks to the Original customer!