Tags
Language
Tags

Herbie Hancock, Chick Corea - An Evening with Herbie Hancock & Chick Corea: In Concert (1978/2013) [Official 24-bit/96 kHz]

Posted By: HDV
Herbie Hancock, Chick Corea - An Evening with Herbie Hancock & Chick Corea: In Concert (1978/2013) [Official 24-bit/96 kHz]

Herbie Hancock, Chick Corea - An Evening with Herbie Hancock & Chick Corea: In Concert (1978/2013)
FLAC (tracks) 24-bit/96 kHz | Time - 91:28 minutes | 1,61 GB
Studio Master, Official Digital Download | Artwork: Front cover

"An Evening With Herbie Hancock & Chick Corea: In Concert" is a live album featuring Herbie Hancock and Chick Corea playing only acoustic piano. Recorded over several live performances in February 1978, the album is an interesting departure from the jazz fusion which both keyboardists specialize in playing.

Since Chick Corea and Herbie Hancock had by 1978 spent several years mostly playing electric keyboards, their acoustic duet tour surprised many listeners who thought that they would always specialize in fusion. This double album contains many fine performances including lengthy versions of "Maiden Voyage" and "La Fiesta" but it is the striding by Corea and Hancock on "Liza" that is most unique.

Tracklist:

01 - Someday My Prince Will Come
02 - Liza (All The Clouds'll Roll Away)
03 - Button Up
04 - February Moment
05 - Maiden Voyage
06 - La Fiesta

Recorded in February 1978 at Masonic Auditorium, San Francisco; Dorothy Chandler Pavilion, Los Angeles; Golden Hall, San Diego; Hill Auditorium, Ann Arbor.

Musicians:
Herbie Hancock - piano, left channel
Chick Corea - piano, right channel

Analyzed: Chick Corea, Herbie Hancock / An Evening with Herbie Hancock & Chick Corea: In Concert
––––––––––––––––––––––––––––––––––––––––

DR Peak RMS Duration Track
––––––––––––––––––––––––––––––––––––––––
DR14 -0.68 dB -20.13 dB 12:39 01-Someday My Prince Will Come
DR14 -1.31 dB -18.84 dB 9:03 02-Liza (All The Clouds'll Roll Away)
DR15 -0.46 dB -20.71 dB 17:40 03-Button Up
DR16 -0.13 dB -22.31 dB 16:30 01-February Moment
DR15 -1.76 dB -22.28 dB 13:31 02-Maiden Voyage
DR16 -0.93 dB -21.74 dB 22:05 03-La Fiesta
––––––––––––––––––––––––––––––––––––––––

Number of tracks: 6
Official DR value: DR15

Samplerate: 96000 Hz
Channels: 2
Bits per sample: 24
Bitrate: 2454 kbps
Codec: FLAC
================================================================================


Thanks to the Original customer!