Herbie Hancock - Head Hunters (1973) [Japanese Reissue 1999] PS3 ISO + Hi-Res FLAC {RE-UP}

Posted By: HDAtall
Herbie Hancock - Head Hunters (1973) [Japanese Reissue 1999] PS3 ISO + Hi-Res FLAC {RE-UP}

Herbie Hancock - Head Hunters (1973) [Japanese Reissue 1999 #SRGS 4510]
PS3 Rip | SACD ISO | DSD64 2.0 > 1-bit/2.8224 MHz | 41:32 minutes | Scans included | 1,3 GB
or FLAC(converted with foobar2000 to tracks) 24bit/88,2 kHz | Full Scans included | 861 MB

Head Hunters is the twelfth studio album by American jazz musician Herbie Hancock, released October 13, 1973, on Columbia Records in the United States. Recording sessions for the album took place during September 1973 at Wally Heider Studios and Different Fur Trading Co. in San Francisco, California. Head Hunters is a key release in Hancock’s career and a defining moment in the genre of jazz funk. In 2003, the album was ranked number 498 in the book version of Rolling Stone magazine’s list of the 500 greatest albums of all time. In 2007, the Library of Congress added it to the National Recording Registry, which collects “culturally, historically or aesthetically important” sound recordings from the 20th century.

Head Hunters was a pivotal point in Herbie Hancock’s career, bringing him into the vanguard of jazz fusion. Hancock had pushed avant-garde boundaries on his own albums and with Miles Davis, but he had never devoted himself to the groove as he did on Head Hunters. Drawing heavily from Sly Stone, Curtis Mayfield, and James Brown, Hancock developed deeply funky, even gritty, rhythms over which he soloed on electric synthesizers, bringing the instrument to the forefront in jazz. It had all of the sensibilities of jazz, particularly in the way it wound off into long improvisations, but its rhythms were firmly planted in funk, soul, and R&B, giving it a mass appeal that made it the biggest-selling jazz album of all time (a record which was later broken). Jazz purists, of course, decried the experiments at the time, but Head Hunters still sounds fresh and vital decades after its initial release, and its genre-bending proved vastly influential on not only jazz, but funk, soul, and hip-hop.

Tracklist:

01. Chameleon
02. Watermelon Man
03. Sly
04. Vein Melter

Personnel
Produced by David Rubinson & Friends Inc. & Herbie Hancock.
Recorded at Wally Heider Studios, San Francisco - 1973.
Recording Engineers: Fred Catero, Jeremy Zatkin.
Re-Issue Producer: Moto Uehara. SACD Produced by Moto Uehara.
Remastering Engineer: Mark Wilder(NY). Authering Engineer: Kouji С. Suzuki, Yuji Chinone(Tokyo).

Herbie Hancock - fender rhodes, clavinet, arp-odyssey
Bennie Maupin - ts, ss, bcl, afl
Paul Jackson - b
Harvey Mason - ds
Bill Summers - perc

foobar2000 1.2.1 / Dynamic Range Meter 1.1.1

––––––––––––––––––––––––––––––––––––––––
Analyzed: Herbie Hancock / Head Hunters (JAPAN)
––––––––––––––––––––––––––––––––––––––––

DR Peak RMS Duration Track
––––––––––––––––––––––––––––––––––––––––
DR12 -2.89 dB -17.23 dB 15:38 01-CHAMELEON
DR12 -3.00 dB -18.94 dB 6:27 02-WATERMELON MAN
DR12 -4.45 dB -17.76 dB 10:17 03-SLY
DR14 -5.73 dB -23.23 dB 9:10 04-VEIN MELTER
––––––––––––––––––––––––––––––––––––––––

Number of tracks: 4
Official DR value: DR12

Samplerate: 2822400 Hz / PCM Samplerate: 88200 Hz
Channels: 2
Bits per sample: 24
Bitrate: 5645 kbps
Codec: DSD64


Thanks to PS³SACD!
Uncompressed SACD ISO size > 1,66 GB