Tags
Language
Tags

Hiromi - Alive (2014) [Official Digital Download 24bit/96kHz]

Posted By: HDV
Hiromi - Alive (2014) [Official Digital Download 24bit/96kHz]

Hiromi - Alive. The Trio Project feat. Anthony Jackson & Simon Phillips (2014)
FLAC (tracks) 24 bit/96kHz | Time - 74:51 minutes | 1,99 GB
Studio Master, Official Digital Download | Artwork: Digital booklet

"Alive" marks the 2014 return of Japanese pianist/composer Hiromi’s Trio Project, featuring contrabass guitarist Anthony Jackson (Steely Dan, Paul Simon, The O’Jays and Chick Corea) and drummer Simon Phillips (Toto, The Who, Judas Priest, David Gilmour and Jack Bruce). Hiromi's Trio, which DownBeat magazine called one of the most exciting groups working in any genre today, was first formed in 2011. On "Alive", Phillips’s powerful yet poetic percussion and Jackson’s flowing, glow-in-the-dark basslines beautifully support Hiromi’s improvisations. Her evocative compositions evoke the myriad moods and mysteries of life and reveal the soulful, syncopated simpatico of her thrilling threesome.

Over four years of traveling and two previous recordings, Japanese pianist Hiromi Uehara and her Trio Project, with contrabass guitarist Anthony Jackson and drummer Simon Phillips, have become one of the finest units in contemporary jazz. Their particular prowess lies in seamlessly performing the pianist's knotty, technically challenging, often unpredictable compositions; they are also a closely united group of improvisers. Alive, co-produced by Hiromi and Michael Bishop, was cut over three days. The long title track is filled with unexpected twists, turns, and harmonic feints that lead through a labyrinth of classical, post-bop, and fusion-like segments. Phillips' drumming is outstanding, propulsive, and insistent; it underscores Hiromi's piano vamps and solos and foreshadows seismic shifts in the composition. "Wanderer" is classically inspired in its elaborate use of solo and group counterpoint. It transforms quickly toward swinging post-bop halfway through. The elegant melodic line in "Dreamer" is framed by double-timed floor tom and kick drum, even as the tune's shape and dynamic turn sharp corners quickly. Hiromi's solo takes center stage with crystalline ostinati and spirited legato runs. The taut athleticism in the first three tracks gives way to a more playful imagination on "The Seeker." Here, blues, gospel, and bop come together as Jackson's earthy, swaggering groove waxes prosaic. His more aggressive attack drives the fragmented post-bop on "Player," where Hiromi openly displays the influence of her mentor Ahmad Jamal in her solos. "Warrior" is startling in its use of group counterpoint and imaginative, harmonically rich crescendos. "Firefly" is a meditative solo piano piece whose gradually established theme nearly sings. "Spirit" makes exhaustive use of gospel in its slippery, bluesy approach (Jackson's solo is particularly attractive). "Life Goes On," which closes the set, is accessible yet very sophisticated contemporary jazz. Its funky center is filled out with punchy soloing from the pianist. She develops it in the lower and middle registers before flying over the keyboard and vamping to keep the groove. Phillips' snapping rim shots lead the charge and add accents to Jackson's fingerpopping solo. Given Hiromi's wonderful compositions for this collective, Alive's consistent signature is one of surprise. They are wildly complex, yet sound natural and free of artifice. Its feel is bright, warm, and hip, easily her finest outing with the Trio Project to date.

Tracklist:

01 - Alive
02 - Wanderer
03 - Dreamer
04 - Seeker
05 - Player
06 - Warrior
07 - Firefly
08 - Spirit
09 - Life Goes On

Produced by Hiromi and Michael Bishop.
Recording Engineer: Michael Bishop and Ian Dobie (assistant).
Mixing and Mastering Engineer: Michael Bishop.

Musicians:
Hiromi - piano
Anthony Jackson - contrabass guitar
Simon Phillips - drums

Analyzed: Hiromi / Alive
––––––––––––––––––––––––––––––––––––––––

DR Peak RMS Duration Track
––––––––––––––––––––––––––––––––––––––––
DR10 -0.02 dB -11.72 dB 9:04 01-Alive (feat. Anthony Jackson & Simon Phillips)
DR11 -0.03 dB -14.03 dB 9:00 02-Wanderer (feat. Anthony Jackson & Simon Phillips)
DR10 0.00 dB -13.22 dB 8:32 03-Dreamer (feat. Anthony Jackson & Simon Phillips)
DR10 0.00 dB -13.73 dB 7:26 04-Seeker (feat. Anthony Jackson & Simon Phillips)
DR9 -0.02 dB -11.64 dB 9:13 05-Player (feat. Anthony Jackson & Simon Phillips)
DR10 -0.01 dB -12.88 dB 9:00 06-Warrior (feat. Anthony Jackson & Simon Phillips)
DR14 -2.38 dB -23.35 dB 7:32 07-Firefly (feat. Anthony Jackson & Simon Phillips)
DR11 0.00 dB -15.64 dB 8:16 08-Spirit (feat. Anthony Jackson & Simon Phillips)
DR9 0.00 dB -11.54 dB 6:49 09-Life Goes On (feat. Anthony Jackson & Simon Phillips)
––––––––––––––––––––––––––––––––––––––––

Number of tracks: 9
Official DR value: DR10

Samplerate: 96000 Hz
Channels: 2
Bits per sample: 24
Bitrate: 3656 kbps
Codec: FLAC
================================================================================


Thanks to the Original customer!