Hiromi - Hiromi's Sonicbloom: Time Control (2007) [2.0 & 5.1] PS3 ISO + Hi-Res FLAC

Posted By: HDAtall
Hiromi - Hiromi's Sonicbloom: Time Control (2007) [2.0 & 5.1] PS3 ISO + Hi-Res FLAC

Hiromi - Hiromi's Sonicbloom: Time Control (2007)
PS3 Rip | SACD ISO | DST64 2.0 & 5.1 > 1-bit/2.8224 MHz | 61:33 minutes | Scans included | 4,02 GB
or FLAC 2.0 Stereo (converted with foobar2000 to tracks) 24bit/88,2 kHz | Full Scans included | 1,23 GB
Features Stereo and Multichannel surround sound | Telarc # SACD-63665

Hiromi Uehara's version of jazz is unique without being willfully strange – clearly deeply rooted in the straight-ahead jazz verities, she nevertheless writes with a distinctly postmodern sensibility, gleefully juxtaposing wildly disparate musical elements and infusing everything with a joyful energy. In fact, joyful energy is probably the most significant hallmark of her music; on her latest album, even her attempt at a ballad eventually winds up in swinging uptempo territory, and just about everything else either rushes headlong or rocks out strongly in midtempo. This is actually something of a concept album centered on the idea of time, the control of time, and the effects of time on humans. It opens with the frantic but lovely "Time Difference," on which guest guitarist David "Fuze" Fiuczynski is given ample room to rock out, and then lapses into the slower, funkier, but no less energetic "Time Out" (an Uehara original, not the Dave Brubeck standard). "Time Travel" starts out strong but runs out of gas about halfway through its eight and a half minute length, but "Real Clock vs. Body Clock = Jet Lag" is a real hoot – a surf-rock theme that alternates with a barrelhouse barroom piano theme and then becomes an exercise in advanced guitar and synthesizer tonal insanity. One of the most interesting things about this album is the way that Fiuczynski's tonal experimentation draws out a similar adventurousness in Uehara, to the extent that it's sometimes hard to tell which of them is playing a solo. Several tracks on this album are several minutes too long, but overall it's a real treat. You'll be tired at the end, but it will be a good tired.

Tracklist:

01. Time Difference
02. Time Out
03. Time Travel
04. Deep into the Night
05. Real Clock vs. Body Clock = Jet Lag
06. Time and Space
07. Time Control or Controlled by Time
08. Time Flies
09. Time's Up

foobar2000 1.3.2 / Dynamic Range Meter 1.1.1

––––––––––––––––––––––––––––––––––––––––
Analyzed: Hiromi's Sonicbloom / Time Control
––––––––––––––––––––––––––––––––––––––––

DR Peak RMS Duration Track
––––––––––––––––––––––––––––––––––––––––
DR14 -3.74 dB -22.36 dB 6:17 01-Time Difference
DR15 -3.52 dB -23.22 dB 6:40 02-Time Out
DR15 -3.65 dB -23.29 dB 8:35 03-Time Travel
DR15 -3.62 dB -22.69 dB 8:59 04-Deep into the Night
DR14 -3.67 dB -22.76 dB 5:52 05-Real Clock vs. Body Clock = Jet Lag
DR16 -6.04 dB -28.70 dB 7:55 06-Time and Space
DR13 -3.48 dB -22.82 dB 8:30 07-Time Control or Controlled by Time
DR14 -3.55 dB -24.13 dB 7:59 08-Time Flies
DR12 -4.53 dB -22.90 dB 0:46 09-Time's Up
––––––––––––––––––––––––––––––––––––––––

Number of tracks: 9
Official DR value: DR14

Samplerate: 2822400 Hz / PCM Samplerate: 88200 Hz
Channels: 6
Bits per sample: 24
Bitrate: 16934 kbps
Codec: DST64
================================================================================

––––––––––––––––––––––––––––––––––––––––
Analyzed: Hiromi's Sonicbloom / Time Control
––––––––––––––––––––––––––––––––––––––––

DR Peak RMS Duration Track
––––––––––––––––––––––––––––––––––––––––
DR14 -3.78 dB -20.63 dB 6:17 01-Time Difference
DR14 -4.33 dB -21.30 dB 6:40 02-Time Out
DR15 -4.32 dB -23.56 dB 8:35 03-Time Travel
DR13 -3.76 dB -20.68 dB 8:59 04-Deep into the Night
DR15 -3.84 dB -21.98 dB 5:52 05-Real Clock vs. Body Clock = Jet Lag
DR16 -6.57 dB -25.63 dB 7:55 06-Time and Space
DR14 -3.69 dB -20.82 dB 8:31 07-Time Control or Controlled by Time
DR13 -4.60 dB -23.13 dB 7:59 08-Time Flies
DR11 -4.15 dB -21.14 dB 0:46 09-Time's Up
––––––––––––––––––––––––––––––––––––––––

Number of tracks: 9
Official DR value: DR14

Samplerate: 2822400 Hz / PCM Samplerate: 88200 Hz
Channels: 2
Bits per sample: 24
Bitrate: 5645 kbps
Codec: DST64


Thanks to KingCrim!
Uncompressed SACD ISO size > 3,8 GB
>