Hiromi Uehara - Another Mind (2003) {2.0 & 5.1} PS3 ISO + Hi-Res FLAC

Posted By: HDAtall
Hiromi Uehara - Another Mind (2003) {2.0 & 5.1} PS3 ISO + Hi-Res FLAC

Hiromi - Another Mind (2003) {2.0 & 5.1}
PS3 Rip | SACD ISO | DST64 2.0 & 5.1 > 1-bit/2.8224 MHz | 70:11 minutes | Full Scans included | 4,59 GB
or FLAC 2.0 Stereo (converted with foobar2000 to tracks) 24bit/88,2 kHz | 70:16 min | Scans included | 1,42 GB
Features Stereo and Multichannel surround sound | Telarc # SACD-63558

Hiromi Uehara (上原ひろみ), known as Hiromi, is a jazz composer and pianist born in Hamamatsu, Japan. She is known for her virtuosic technique, energetic live performances and blend of musical genres such as post-bop, progressive rock, classical and fusion in her compositions.

On the back of the CD case is a photo that is basically a heads-up as to what you can expect from this debut album by 23-year-old jazz pianist Hiromi Uehara. She is standing outside wearing a black dress and a strange yellow-and-white wrap. Her face is turned up to the sky, her eyes and mouth closed, her jaw clenched; her arms are held straight down by her sides with her fingers splayed wide. It's a stance that bespeaks intense energy and a certain defiance. Most of the music contained in the CD seems to have been made in a similar attitude, for better and, occasionally, for worse. Uehara plays with an almost demonic energy and amazing stamina; on a program that consists entirely of original compositions, most of them delivered in a standard piano trio format, she zips from style to style with a sense of urgency that borders at times on the manic. Her propulsive "XYZ" opens the album with churning intensity; "Double Personality" finds her alternating between nearly harmolodic free improvisation and carefully composed modern jazz; "Joy" offers a gentle breath of fresh air before she resumes her headlong musical charge. The album ends with a bonus track, an unaccompanied piano piece called "The Tom and Jerry Show," which alternates between loopy, Carl Stalling-esque avant-gardism and high-speed ragtime. By the end of this album you'll be tired, but it's a good tired. Heaven only knows what her next album will sound like, but the laws of physics would seem to dictate that she'll have to slow down a bit.

Tracklist:

01. XYZ
02. Double Personality
03. Summer Rain
04. Joy
05. 010101 (binary system)
06. Truth and Lie
07. Dancando no paraiso
08. Another Mind
09. The Tom and Jerry Show

foobar2000 1.2.1 / Dynamic Range Meter 1.1.1

––––––––––––––––––––––––––––––––––––––––
Analyzed: Hiromi Uehara / Hiromi: Another Mind
––––––––––––––––––––––––––––––––––––––––

DR Peak RMS Duration Track
––––––––––––––––––––––––––––––––––––––––
DR13 -2.26 dB -20.43 dB 5:36 01-XYZ
DR15 -2.45 dB -22.12 dB 11:56 02-Double Personality
DR14 -2.43 dB -21.16 dB 6:07 03-Summer Rain
DR16 -2.52 dB -25.21 dB 8:29 04-Joy
DR15 -2.58 dB -23.32 dB 8:24 05-010101 (binary system)
DR14 -2.61 dB -22.40 dB 7:16 06-Truth and Lie
DR14 -2.19 dB -20.99 dB 7:38 07-Dancando no paraiso
DR14 -2.44 dB -21.54 dB 8:45 08-Another Mind
DR5 -5.28 dB -29.19 dB 6:04 09-The Tom and Jerry Show
––––––––––––––––––––––––––––––––––––––––

Number of tracks: 9
Official DR value: DR13

Samplerate: 2822400 Hz / PCM Samplerate: 88200 Hz
Channels: 6
Bits per sample: 24
Bitrate: 16934 kbps
Codec: DST64
================================================================================

––––––––––––––––––––––––––––––––––––––––
Analyzed: Hiromi Uehara / Hiromi: Another Mind
––––––––––––––––––––––––––––––––––––––––

DR Peak RMS Duration Track
––––––––––––––––––––––––––––––––––––––––
DR15 -4.50 dB -21.84 dB 5:36 01-XYZ
DR15 -3.29 dB -21.56 dB 11:56 02-Double Personality
DR14 -3.91 dB -21.13 dB 6:07 03-Summer Rain
DR16 -4.47 dB -24.58 dB 8:28 04-Joy
DR16 -4.58 dB -23.07 dB 8:24 05-010101 (binary system)
DR16 -5.06 dB -23.93 dB 7:18 06-Truth and Lie
DR14 -4.41 dB -21.14 dB 7:37 07-Dancando no paraiso
DR13 -4.43 dB -21.16 dB 8:41 08-Another Mind
DR14 -5.29 dB -24.42 dB 6:04 09-The Tom and Jerry Show
––––––––––––––––––––––––––––––––––––––––

Number of tracks: 9
Official DR value: DR15

Samplerate: 2822400 Hz / PCM Samplerate: 88200 Hz
Channels: 2
Bits per sample: 24
Bitrate: 5645 kbps
Codec: DST64


Thanks to SergeyVP!
Uncompressed SACD ISO size > 4,35 GB
>