Tags
Language
Tags

Howard Carpendale & Royal Philharmonic Orchestra - Happy Christmas (2021) [Official Digital Download]

Posted By: delpotro
Howard Carpendale & Royal Philharmonic Orchestra - Happy Christmas (2021) [Official Digital Download]

Howard Carpendale & Royal Philharmonic Orchestra - Happy Christmas (2021)
FLAC (tracks) 24-bit/44,1 kHz | Front Cover | Time - 47:20 minutes | 523 MB
Pop, Xmas | Label: Electrola, Official Digital Download

Nachdem Howard Carpendale in den vergangenen zwei Jahren mit »Symphonie meines Lebens« und »Symphonie meines Lebens 2« zwei Karriererückblicke mit dem Royal Philharmonic Orchestra veröffentlichte, die beide in den Top 10 der deutschen Charts landeten, präsentiert der deutsch-südafrikanische Schlagersänger und Komponist 2021 ein neues Weihnachtsalbum und vollendet damit die Trilogie mit dem Londoner Orchester.

»Happy Christmas« lautet der bezeichnende Titel.

15 weihnachtliche Songs hat Howard dafür in den berühmten Londoner Abbey Road Studios aufgenommen, Coverversionen von traditionellen deutschen Weihnachtsliedern wie »Leise rieselt der Schnee«, amerikanische Christmas-Hits und -Klassiker wie »Driving Home For Christmas«, »Happy X Mas (War Is Over)«, »Little Drummer Boy« und »Winter Wonderland« oder aber deutsche Neuinterpretationen amerikanischer Songs. So wird aus »Chestnuts Roasting On An Open Fire« »Komm wir geh’n noch runter in die Stadt«, aus »Have Yourself A Merry Little Christmas« wird »Heute Nacht sind alle Engel schlaflos«, aus »Santa Claus Is Coming To Town« wird »Santa Claus kommt heut’ noch vorbei«. Das gesamte Tracklisting von »Happy Christmas« finden Sie im Folgenden.

Die neue Kompilation kommt als CD und als LP sowie als limitierte Fanbox. Die Fanbox vereint neben dem neuen Album reichlich Bonusmaterial: eine Weihnachtskugel, eine Weihnachtsdose inklusive vier Keksbackformen und eine handsignierte Weihnachtskarte. Außerdem wartet in fünf Fanboxen jeweils eine Goldcard für einen persönlichen Anruf von Howard Carpendale.

Tracklist:
1. Heute Nacht sind alle Engel schlaflos (Have Yourself A Merry Little Christmas) (03:50)
2. Winter Wonderland (02:29)
3. White Christmas (Weisse Weihnacht) (03:01)
4. Santa Claus kommt heut‘ noch vorbei (Santa Claus Is Coming To Town) (02:04)
5. Little Drummer Boy (03:01)
6. Leise rieselt der Schnee (03:07)
7. Happy Xmas (War Is Over) (03:08)
8. Komm wir geh‘n noch runter in die Stadt (Chestnuts Roasting On An Open Fire) (03:01)
9. Weihnachtszeit (Mistletoe and Wine) (04:05)
10. Driving Home For Christmas (03:38)
11. Ein Weihnachtslied (03:06)
12. Happy Christmas (03:24)
13. Rockin’ Around The Christmas Tree (02:10)
14. Ich warte auf den ersten Schnee (03:29)
15. Stille Nacht (Silent Night) (03:41)

foobar2000 1.4.1 / Dynamic Range Meter 1.1.1
log date: 2021-12-04 14:28:14

––––––––––––––––––––––––––––––––––––––––
Analyzed: Howard Carpendale / Happy Christmas
––––––––––––––––––––––––––––––––––––––––

DR Peak RMS Duration Track
––––––––––––––––––––––––––––––––––––––––
DR9 -0.32 dB -13.71 dB 3:50 01-Heute Nacht sind alle Engel schlaflos (Have Yourself A Merry Little Christmas)
DR8 -0.32 dB -10.98 dB 2:29 02-Winter Wonderland
DR9 -0.32 dB -12.83 dB 3:02 03-White Christmas (Weisse Weihnacht)
DR7 -0.32 dB -9.96 dB 2:04 04-Santa Claus kommt heut‘ noch vorbei (Santa Claus Is Coming To Town)
DR7 -0.32 dB -11.40 dB 3:02 05-Little Drummer Boy
DR10 -0.32 dB -13.92 dB 3:07 06-Leise rieselt der Schnee
DR7 -0.32 dB -10.04 dB 3:08 07-Happy Xmas (War Is Over)
DR8 -0.32 dB -11.39 dB 3:02 08-Komm wir geh‘n noch runter in die Stadt (Chestnuts Roasting On An Open Fire)
DR8 -0.32 dB -10.83 dB 4:06 09-Weihnachtszeit (Mistletoe and Wine)
DR9 -0.32 dB -11.79 dB 3:38 10-Driving Home For Christmas
DR8 -0.32 dB -10.47 dB 3:07 11-Ein Weihnachtslied
DR6 -0.32 dB -8.66 dB 3:24 12-Happy Christmas
DR7 -0.32 dB -9.88 dB 2:11 13-Rockin’ Around The Christmas Tree
DR9 -0.32 dB -11.60 dB 3:30 14-Ich warte auf den ersten Schnee
DR11 -0.32 dB -15.36 dB 3:41 15-Stille Nacht (Silent Night)
––––––––––––––––––––––––––––––––––––––––

Number of tracks: 15
Official DR value: DR8

Samplerate: 44100 Hz
Channels: 2
Bits per sample: 24
Bitrate: 1383 kbps
Codec: FLAC
================================================================================


Thanks to the Original customer!