Tags
Language
Tags
February 2023
Su Mo Tu We Th Fr Sa
29 30 31 1 2 3 4
5 6 7 8 9 10 11
12 13 14 15 16 17 18
19 20 21 22 23 24 25
26 27 28 1 2 3 4

Ikuyo Nakamichi, Deutsche Kammerphilharmonie, Paavo Jarvi - Beethoven: Piano Concertos 1, 2 & 4 (2011) SACD ISO +DSD64 +FLAC

Posted By: HDAtall
Ikuyo Nakamichi, Deutsche Kammerphilharmonie, Paavo Jarvi - Beethoven: Piano Concertos 1, 2 & 4 (2011) SACD ISO +DSD64 +FLAC

Ikuyo Nakamichi, The Deutsche Kammerphilharmonie, Paavo Järvi - Beethoven: Piano Concertos 1, 2 & 4 (2011)
SACD Rip | 2x SACD ISO | DST64 2.0 & 5.0 > 1-bit/2.8224 MHz | 102:13 minutes | Scans included | 4,91 GB
or DSD64 2.0 Stereo (from SACD-ISO to Tracks.dsf) > 1-bit/2.8224 MHz | Full Scans included | 2,33 GB
or FLAC Stereo (carefully converted & encoded to tracks) 24bit/96 kHz | Full Scans included | 1,95 GB
DSD Recording | Features Stereo and Multichannel Surround Sound | RCA Red Seal / Sony Japan # SICP-10110~11

Ikuyo Nakamichi, who made her debut in Japan and Europe in 1987, is one of the most outstanding and sought-after pianists in Japan. With a broad repertory ranging from Classical to Romantic, Nakamichi has performed as a soloist with Japan's leading orchestras as well as many European and American orchestras. Nakamichi has an exclusive recording contract with Sony Music Japan International and has released many CDs, including an album which set a record as the top-selling classical music recording to date. Particularly with her recordings of the six piano concertos with Deutsche Kammerphilharmonie Bremen under the baton of Paavo Järvi, she has firmly established her reputation as “Beethoven performer Ikuyo Nakamichi”.

Tracklist

DISC ONE:
01. Piano Concerto No. 1 in C Major, Op. 15 I. Allegro con brio
02. Piano Concerto No. 1 in C Major, Op. 15 II. Largo
03. Piano Concerto No. 1 in C Major, Op. 15 III. Rondo. Allegro
04. Piano Concerto No. 2 in B-flat Major, Op. 19 - I. Allegro con brio
05. Piano Concerto No. 2 in B-flat Major, Op. 19 - II. Adagio
06. Piano Concerto No. 2 in B-flat Major, Op. 19 - III. Rondo - Molto allegro
07. Rondo for Piano and Orchestra in B-flat Major, WoO. 7

DISC TWO:
01. Piano Concerto No. 4 in G Major, Op. 58 - I. Allegro moderato
02. Piano Concerto No. 4 in G Major, Op. 58 - II. Andante con moto
03. Piano Concerto No. 4 in G Major, Op. 58 - III. Rondo - Vivace

Produced by Phillip Traugott. Balance, Mixing & Editing Engineer: Everett Porter.
Recorded on July 12-18, 2006 at the Funkhaus Berlin Nalepastrasse, Germany.

foobar2000 1.6.10 / Dynamic Range Meter 1.1.1

––––––––––––––––––––––––––––––––––––––––
Analyzed: Ikuyo Nakamichi, Paavo Jarvi/The Deutsche Kammerphilharmonie Bremen / Beethoven: Piano Concertos No. 1, No. 2 & No. 4
––––––––––––––––––––––––––––––––––––––––

DR Peak RMS Duration Track
––––––––––––––––––––––––––––––––––––––––
DR16 -5.31 dB -28.13 dB 13:23 01-Piano Concerto No. 1 in C Major, Op. 15 I. Allegro con brio
DR15 -11.13 dB -31.68 dB 10:17 02-II. Largo
DR17 -3.91 dB -27.62 dB 8:40 03-III. Rondo. Allegro
DR15 -6.40 dB -27.51 dB 13:57 04-Piano Concerto No. 2 in B-flat Major, Op. 19 I. Allegro con brio
DR15 -6.87 dB -29.05 dB 8:07 05-II. Adagio
DR15 -6.32 dB -27.03 dB 5:48 06-III. Rondo. Molto allegro
DR15 -8.71 dB -29.58 dB 8:55 07-Rondo for Piano and Orchestra in B-flat Major, WoO. 7
––––––––––––––––––––––––––––––––––––––––

Number of tracks: 7
Official DR value: DR15

Samplerate: 2822400 Hz / PCM Samplerate: 176400 Hz
Channels: 5
Bits per sample: 1
Bitrate: 14112 kbps
Codec: DST64
================================================================================

––––––––––––––––––––––––––––––––––––––––
Analyzed: Ikuyo Nakamichi, Paavo Jarvi/The Deutsche Kammerphilharmonie Bremen / Beethoven: Piano Concertos No. 1, No. 2 & No. 4
––––––––––––––––––––––––––––––––––––––––

DR Peak RMS Duration Track
––––––––––––––––––––––––––––––––––––––––
DR16 -3.81 dB -27.04 dB 18:27 01-Beethoven: Piano Concerto No. 4 in G Major, Op. 58 I. Allegro moderato
DR15 -9.75 dB -30.94 dB 4:57 02-II. Andante con moto
DR16 -3.73 dB -26.32 dB 9:40 03-III. Rondo. Vivace
––––––––––––––––––––––––––––––––––––––––

Number of tracks: 3
Official DR value: DR16

Samplerate: 2822400 Hz / PCM Samplerate: 176400 Hz
Channels: 5
Bits per sample: 1
Bitrate: 14112 kbps
Codec: DST64
================================================================================

––––––––––––––––––––––––––––––––––––––––
Analyzed: Ikuyo Nakamichi, Paavo Jarvi/The Deutsche Kammerphilharmonie Bremen / Beethoven: Piano Concertos No. 1, No. 2 & No. 4
––––––––––––––––––––––––––––––––––––––––

DR Peak RMS Duration Track
––––––––––––––––––––––––––––––––––––––––
DR16 -4.20 dB -25.72 dB 13:23 01-Piano Concerto No. 1 in C Major, Op. 15 I. Allegro con brio
DR16 -9.35 dB -29.93 dB 10:17 02-II. Largo
DR16 -3.50 dB -25.21 dB 8:40 03-III. Rondo. Allegro
DR15 -4.93 dB -24.74 dB 13:57 04-Piano Concerto No. 2 in B-flat Major, Op. 19 I. Allegro con brio
DR15 -6.15 dB -26.55 dB 8:07 05-II. Adagio
DR15 -4.49 dB -24.07 dB 5:48 06-III. Rondo. Molto allegro
DR15 -5.51 dB -27.08 dB 8:55 07-Rondo for Piano and Orchestra in B-flat Major, WoO. 7
––––––––––––––––––––––––––––––––––––––––

Number of tracks: 7
Official DR value: DR15

Samplerate: 2822400 Hz / PCM Samplerate: 176400 Hz
Channels: 2
Bits per sample: 1
Bitrate: 5645 kbps
Codec: DST64
================================================================================

––––––––––––––––––––––––––––––––––––––––
Analyzed: Ikuyo Nakamichi, Paavo Jarvi/The Deutsche Kammerphilharmonie Bremen / Beethoven: Piano Concertos No. 1, No. 2 & No. 4
––––––––––––––––––––––––––––––––––––––––

DR Peak RMS Duration Track
––––––––––––––––––––––––––––––––––––––––
DR16 -3.64 dB -25.43 dB 18:27 01-Beethoven: Piano Concerto No. 4 in G Major, Op. 58 I. Allegro moderato
DR15 -9.16 dB -29.75 dB 4:57 02-II. Andante con moto
DR16 -3.45 dB -24.63 dB 9:40 03-III. Rondo. Vivace
––––––––––––––––––––––––––––––––––––––––

Number of tracks: 3
Official DR value: DR15

Samplerate: 2822400 Hz / PCM Samplerate: 176400 Hz
Channels: 2
Bits per sample: 1
Bitrate: 5645 kbps
Codec: DST64


Ripped to ISO with Oppo BDP-105D
Thanks to atolones3000!
Uncompressed SACD ISO size > 3,19 + 1,52 GB
>