Tags
Language
Tags

Il Tempio Armonico/Davide Monti/Alberto Rasi - Antonio Vivaldi: 4 Seasons of Love (2010) [Official Download 24bit/96kHz]

Posted By: HDV
Il Tempio Armonico/Davide Monti/Alberto Rasi - Antonio Vivaldi: 4 Seasons of Love (2010) [Official Download 24bit/96kHz]

Alberto Rasi, Il Tempio Armonico, Davide Monti - Vivaldi: 4 Seasons Of Love (2010)
FLAC (tracks) 24 bit/96 kHz | Time - 52:59 minutes | 1,02 GB
Studio Master, Official Digital Download | Artwork: Digital booklet

Il Tempio Armonico rediscovers the deepest essence of The Four Seasons with a performance based on the original manuscripts and carried out 'a parti reali', with arpa doppia and harpsichord as continuo. The outcome is a performance that succeeds in giving back the original freshness, charm and grace of Antonio Vivaldi's masterpiece.

Tracklist:

01 - La Primavera RV 269 - Allegro
02 - La Primavera RV 269 - Largo
03 - La Primavera RV 269 - Allegro
04 - L'Estate RV 315 - Allegro non molto
05 - L'Estate RV 315 - Adagio
06 - L'Estate RV 315 - Presto
07 - L'Autunno RV 293 - Allegro
08 - L'Autunno RV 293 - Adagio molto
09 - L'Autunno RV 293 - Allegro
10 - L'Inverno RV 297 - Allegro non molto
11 - L'Inverno RV 297 - Largo
12 - L'Inverno RV 297 - Allegro
13 - Concerto Madrigalesco RV 129 - Adagio
14 - Concerto Madrigalesco RV 129 - Allegro
15 - Concerto Madrigalesco RV 129 - Adagio
16 - Concerto Madrigalesco RV 129 - (Allegro)
17 - Concerto in Do maggiore RV 114 - Allegro
18 - Concerto in Do maggiore RV 114 - Adagio
19 - Concerto in Do maggiore RV 114 - Ciaccona

Analyzed: Il Tempio Armonico/Davide Monti/Alberto Rasi / Antonio Vivaldi: 4 Seasons of Love
––––––––––––––––––––––––––––––––––––––––

DR Peak RMS Duration Track
––––––––––––––––––––––––––––––––––––––––
DR14 -0.15 dB -19.56 dB 3:18 01-La Primavera RV 269 - Allegro
DR12 -6.96 dB -24.13 dB 2:32 02-La Primavera RV 269 - Largo
DR12 -2.85 dB -19.48 dB 3:57 03-La Primavera RV 269 - Allegro
DR14 -0.20 dB -21.25 dB 5:38 04-L'Estate RV 315 - Allegro non molto
DR15 -6.95 dB -27.82 dB 2:24 05-L'Estate RV 315 - Adagio
DR14 -0.65 dB -18.91 dB 2:51 06-L'Estate RV 315 - Presto
DR14 -3.05 dB -21.67 dB 5:11 07-L'Autunno RV 293 - Allegro
DR11 -12.88 dB -28.61 dB 2:27 08-L'Autunno RV 293 - Adagio molto
DR14 -1.43 dB -20.36 dB 3:27 09-L'Autunno RV 293 - Allegro
DR13 -1.49 dB -19.49 dB 3:05 10-L'Inverno RV 297 - Allegro non molto
DR12 -6.06 dB -22.62 dB 2:00 11-L'Inverno RV 297 - Largo
DR13 -0.76 dB -19.05 dB 3:12 12-L'Inverno RV 297 - Allegro
DR10 -5.34 dB -22.40 dB 0:51 13-Concerto Madrigalesco RV 129 - Adagio
DR12 -5.43 dB -21.31 dB 2:01 14-Concerto Madrigalesco RV 129 - Allegro
DR10 -11.62 dB -26.81 dB 0:43 15-Concerto Madrigalesco RV 129 - Adagio
DR11 -5.23 dB -21.10 dB 1:12 16-Concerto Madrigalesco RV 129 - (Allegro)
DR13 -2.39 dB -19.87 dB 2:40 17-Concerto in Do maggiore RV 114 - Allegro
DR15 -7.14 dB -28.14 dB 2:39 18-Concerto in Do maggiore RV 114 - Adagio
DR13 -3.65 dB -21.14 dB 2:53 19-Concerto in Do maggiore RV 114 - Ciaccona
––––––––––––––––––––––––––––––––––––––––

Number of tracks: 19
Official DR value: DR13

Samplerate: 96000 Hz
Channels: 2
Bits per sample: 24
Bitrate: 2587 kbps
Codec: FLAC
================================================================================


Thanks to the Original customer!