Iron Maiden - Iron Maiden (1980/2015) [Official Digital Download 24-bit/96kHz]

Posted By: HDV
Iron Maiden - Iron Maiden (1980/2015) [Official Digital Download 24-bit/96kHz]

Iron Maiden - Iron Maiden (1980/2015)
FLAC (tracks) 24-bit/96 kHz | Time - 37:43 minutes | 911 MB
Studio Master, Official Digital Download | Artwork: Front cover

Iron Maiden, released on 14 April 1980, is the debut album by the British heavy metal band Iron Maiden. Although Iron Maiden have since criticised the quality of the album's production, the release was met with critical and commercial acclaim, debuting at No. 4 in the UK Albums Chart as well as achieving prominence for the band in mainland Europe.

There may be no better place to hear how both punk and prog rock informed the New Wave of British Heavy Metal than Iron Maiden's self-titled debut. Often overlooked and overshadowed by the glorious Bruce Dickinson years, it's easy to forget that Iron Maiden was itself a game-changer when it appeared on the scene in 1980. That year also saw important albums from Motörhead, Saxon, and Angel Witch, but Iron Maiden vaulted its creators to the head of the NWOBHM pack, reaching the U.K. Top Five and establishing them as an outfit with the talent to build on Judas Priest's late-'70s innovations. On the one hand, Maiden was clearly drawing from elements of punk rock – the raw D.I.Y. production, the revved-up velocities, and the vocals of rough-and-ready growler Paul Di'Anno, who looked and sounded not like a metal god, but rather a short-haired street tough. On the other hand, Maiden had all the creative ambition of a prog rock band. Compositionally, even their shortest and most straightforward songs featured abrupt changes in tempo and feel. Their musicianship was already light years beyond punk, with complicated instrumental passages between guitarists Dave Murray and Dennis Stratton and bassist Steve Harris. When Murray and Stratton harmonize their leads, they outdo even Priest's legendary tandem in terms of pure speed. The lyrics have similarly high-flying aspirations, spinning first-person stories and character sketches with a flair for the seedy and the grotesque. Add it all up, and Iron Maiden performs the neat trick of reconciling two genres seemingly antithetical to one another, using post-Priest heavy metal as the meeting ground. The seven-minute "Phantom of the Opera" is a landmark, the band's earliest progressive epic and still among its best; with its ambitious fusion of musical styles, its multi-sectioned construction, and the literary retelling of the lyrics, it seemed to encapsulate all the promise of both the band and the NWOBHM. Two of the simpler, punkier rockers, "Running Free" and "Sanctuary" (the latter left off the U.K. version but added to subsequent reissues), made the lower reaches of the British singles charts. The flasher tale "Prowler," one of the band's more enduring numbers, is in the same vein, but ups the instrumental complexity, while the title track still remains a concert staple. Elsewhere, the band offers the first of many instrumentals with "Transylvania," introduces the recurring title character of "Charlotte the Harlot," and reimagines Judas Priest's "Beyond the Realms of Death" with the "ballad" "Remember Tomorrow," which starts out soft but closes with a speed-freak guitar section. Perhaps the only hint of a misstep comes on the more restrained ballad "Strange World," the only song from this album that was never re-recorded in a live or alternate version by the Dickinson lineup. Nonetheless, the whole project explodes with energy and ideas, and while the band would certainly go on to refine much of what's here (including the cover painting of mascot Eddie), Iron Maiden would still rank as a landmark even if the Dickinson years had never happened.

Tracklist:

01 - Prowler
02 - Remember Tomorrow
03 - Running Free
04 - Phantom Of The Opera
05 - Transylvania
06 - Strange World
07 - Charlotte The Harlot
08 - Iron Maiden

Analyzed: Iron Maiden / Iron Maiden
––––––––––––––––––––––––––––––––––––––––

DR Peak RMS Duration Track
––––––––––––––––––––––––––––––––––––––––
DR7 -1.28 dB -9.43 dB 3:55 01-Prowler
DR7 -1.28 dB -11.37 dB 5:29 02-Remember Tomorrow
DR7 -1.28 dB -9.26 dB 3:18 03-Running Free
DR6 -1.28 dB -8.77 dB 7:21 04-Phantom Of The Opera
DR6 -1.28 dB -8.47 dB 4:05 05-Transylvania
DR8 -1.28 dB -11.33 dB 5:47 06-Strange World
DR7 -1.28 dB -9.31 dB 4:13 07-Charlotte The Harlot
DR6 -1.28 dB -8.94 dB 3:34 08-Iron Maiden
––––––––––––––––––––––––––––––––––––––––

Number of tracks: 8
Official DR value: DR7

Samplerate: 96000 Hz
Channels: 2
Bits per sample: 24
Bitrate: 3316 kbps
Codec: FLAC
================================================================================


Thanks to the Original customer!