Subcategories

Iron Maiden - No Prayer For The Dying (1990/2015) [Official Digital Download 24-bit/44,1kHz]

Posted By: HDV
Iron Maiden - No Prayer For The Dying (1990/2015) [Official Digital Download 24-bit/44,1kHz]

Iron Maiden - No Prayer For The Dying (1990/2015)
FLAC (tracks) 24-bit/44,1 kHz | Time - 44:06 minutes | 582 MB
Studio Master, Official Digital Download | Artwork: Front cover

No Prayer for the Dying is the eighth studio album by British heavy metal band Iron Maiden. It marks their first line-up change since 1983; guitarist Adrian Smith left the band during the pre-production phase, unhappy with the musical direction it was taking, and only having contributed to one song, "Hooks in You". Smith was replaced by Janick Gers, who had previously worked with singer Bruce Dickinson on his first solo-album, Tattooed Millionaire, and had also worked with Ian Gillan, former Marillion singer Fish, and New Wave of British Heavy Metal band, White Spirit.

With their first album of the '90s, Iron Maiden wanted to return to basics. Comparable to their more straightforward early work, No Prayer for the Dying quickly shot up the charts all over the world, but it was clear that the songwriting wasn't up to snuff when compared to such classics as Killers or Number of the Beast. The album also signaled the debut of new guitarist Janick Gers, best known for his stint in Ian Gillan's solo band and on Bruce Dickinson's solo album, Tattooed Millionaire. Featuring a pair of U.K. hit singles – the anti-televangelist diatribe "Holy Smoke" and Maiden's lone number one, the controversial "Bring Your Daughter…to the Slaughter" (which was banned by the BBC) – plus another that should have been issued as a single (the opener, "Tailgunner"), No Prayer as a whole doesn't measure up to the hits. The title track contains an opening too reminiscent of their 1988 single "Infinite Dreams," while other tracks such as "Fates Warning," "Run Silent Run Deep," and "Hooks in You" never catch fire. And even though the epic closer "Mother Russia," "Public Enema Number One," and "Fates Warning" are standouts, they just don't hold up well when compared to past classics. While Maiden retained their solid following elsewhere in the world, No Prayer for the Dying would prove to be their last gold-certified album in the U.S.

Tracklist:

01 - Tailgunner
02 - Holy Smoke
03 - No Prayer For The Dying
04 - Public Enema Number One
05 - Fates Warning
06 - The Assassin
07 - Run Silent Run Deep
08 - Hooks In You
09 - Bring Your Daughter…To The Slaughter
10 - Mother Russia

Analyzed: Iron Maiden / No Prayer For The Dying
––––––––––––––––––––––––––––––––––––––––

DR Peak RMS Duration Track
––––––––––––––––––––––––––––––––––––––––
DR6 -1.35 dB -7.82 dB 4:14 01-Tailgunner
DR7 -1.35 dB -8.77 dB 3:49 02-Holy Smoke
DR6 -1.35 dB -9.21 dB 4:23 03-No Prayer For The Dying
DR6 -1.35 dB -8.51 dB 4:14 04-Public Enema Number One
DR6 -1.35 dB -8.53 dB 4:11 05-Fates Warning
DR6 -1.35 dB -8.59 dB 4:18 06-The Assassin
DR6 -1.35 dB -9.01 dB 4:35 07-Run Silent Run Deep
DR7 -1.35 dB -8.91 dB 4:07 08-Hooks In You
DR6 -1.35 dB -9.48 dB 4:44 09-Bring Your Daughter…To The Slaughter
DR7 -1.35 dB -10.74 dB 5:32 10-Mother Russia
––––––––––––––––––––––––––––––––––––––––

Number of tracks: 10
Official DR value: DR6

Samplerate: 44100 Hz
Channels: 2
Bits per sample: 24
Bitrate: 1674 kbps
Codec: FLAC
================================================================================


Thanks to the Original customer!

More Iron Maiden in Hi-Res