Isabelle van Keulen and Hannes Minnaar - Beethoven: Complete Sonatas For Piano and Violin (2014) MCH SACD ISO + Hi-Res FLAC

Posted By: HDAtall
Isabelle van Keulen and Hannes Minnaar - Beethoven: Complete Sonatas For Piano and Violin (2014) MCH SACD ISO + Hi-Res FLAC

Isabelle van Keulen & Hannes Minnaar - Beethoven: Complete Sonatas For Piano and Violin (2014)
SACD Rip | SACD ISO | DST64 2.0 & 5.1 > 1-bit/2.8224 MHz | 222:09 minutes | Basic Scans | 12,01 GB
or FLAC 2.0 Stereo (converted with foobar2000 to tracks) 24bit/96 kHz | Basic Scans incl. | 4,38 GB
Features Stereo and Multichannel Surround Sound | Challenge Classics # CC 72650

This four-disc hybrid SACD set presents the complete works for piano and violin of Ludwig van Beethoven. The performers are the critically-acclaimed Dutch violinist Isabelle van Keuelen and the talented young compatriot, pianist Hannes Minnaar. This is very enjoyable performances and recording by two outstanding young artists.

The original title given to the first edition of Beethoven's Sonata No. 9 opus 47 known as the Kreutzer Sonata, refers to the piece as a work for "pianoforte with violin obligato". This clearly shows Beethoven's revolutionary thinking on priorities as regards the piano-violin combination, a reflection it would seem of the fact that the composer saw the music as a vehicle for his own virtuoso skills on the keyboard. The first eight violin sonatas, opus 12, nos.1-3, opus 23 and 24, and opus 30, nos.1-3, were composed between 1798 and 1802, but then, after composing the "Kreutzer" Sonata in 1803 he set the genre aside until 1812, the year in which the opus 96 sonata in G major was written.

Isabelle van Keulen has an established reputation as a violinist and viola player of world-class stature. Over the last few years she has released recordings on Challenge Classics with the pianist Ronald Brautigam of music by Shostakovich, Richard Strauss, Respighi and Rota, Grieg, Elgar and Sibelius, Prokofiev, and with her own Isabelle van Keulen Ensemble, Piazzolla (Tango!).

Hannes Minnaar made his debut with the Netherlands Symphony Orchestra under the baton of Alessandro de Marchi at the age of 17. Since then he has performed with many leading orchestras including the Netherlands Radio Philharmonic Orchestra, Orchestre de la Suisse Romande, and the Royal Flemish Philharmonic, and worked with conductors such as Marin Alsop, Herbert Blomstedt, and Frans Brüggen. In 2013 he made his first solo appearance with The Royal Concertgebouw Orchestra in a performance of Beethoven's Fourth Piano Concerto. Hannes Minnaar is also active as a chamber musician and is a member of the award-winning Van Baerle Trio.

Tracklist:

Disc 1 #01. Sonata No. 1 in D major op. 12/1: Allegro con brio
Disc 1 #02. Sonata No. 1 in D major op. 12/1: Tema con variazioni: Andante con moto
Disc 1 #03. Sonata No. 1 in D major op. 12/1: Rondo: Allegro
Disc 1 #04. Sonata No. 2 in A major op. 12/2: Allegro vivace
Disc 1 #05. Sonata No. 2 in A major op. 12/2: Andante, più tosto allegretto
Disc 1 #06. Sonata No. 2 in A major op. 12/2: Allegro piacevole
Disc 1 #07. Sonata No. 3 in E-flat major op. 12/3: Allegro con spirito
Disc 1 #08. Sonata No. 3 in E-flat major op. 12/3: Adagio con molta espressione
Disc 1 #09. Sonata No. 3 in E-flat major op. 12/3: Rondo: Allegro molto

Disc 2 #01. Sonata No. 4 in a minor op. 23: Presto
Disc 2 #02. Sonata No. 4 in a minor op. 23: Andante scherzoso, più allegretto
Disc 2 #03. Sonata No. 4 in a minor op. 23: Allegro molto
Disc 2 #04. Sonata No. 5 in F major op. 24: Allegro
Disc 2 #05. Sonata No. 5 in F major op. 24: Adagio molto espressivo
Disc 2 #06. Sonata No. 5 in F major op. 24: Scherzo: Allegro molto
Disc 2 #07. Sonata No. 5 in F major op. 24: Rondo: Allegro ma non troppo
Disc 2 #08. Sonata No. 6 in A major op. 30/1: Allegro
Disc 2 #09. Sonata No. 6 in A major op. 30/1: Adagio molto espressivo
Disc 2 #10. Sonata No. 6 in A major op. 30/1: Allegretto con variazioni

Disc 3 #01. Sonata No. 7 in c minor op. 30/2: Allegro con brio
Disc 3 #02. Sonata No. 7 in c minor op. 30/2: Adagio cantabile
Disc 3 #03. Sonata No. 7 in c minor op. 30/2: Scherzo: Allegro
Disc 3 #04. Sonata No. 7 in c minor op. 30/2: Finale: Allegro: Presto
Disc 3 #05. Sonata No. 8 in G major op. 30/3: Allegro assai
Disc 3 #06. Sonata No. 8 in G major op. 30/3: Tempo di minuetto, ma molto moderato e grazioso
Disc 3 #07. Sonata No. 8 in G major op. 30/3: Allegro vivace
Disc 3 #08. Sonata No. 10 in G major op. 96: Allegro moderato
Disc 3 #09. Sonata No. 10 in G major op. 96: Adagio espressivo
Disc 3 #10. Sonata No. 10 in G major op. 96: Scherzo: Allegro
Disc 3 #11. Sonata No. 10 in G major op. 96: Poco allegretto

Disc 4 #01. Sonata No. 9 in A minor op. 47: Adagio sostenuto - Presto - Adagio
Disc 4 #02. Sonata No. 9 in A minor op. 47: Andante con variazioni
Disc 4 #03. Sonata No. 9 in A minor op. 47: Presto

Personnel
Isabelle van Keulen - violin
Hannes Minnaar - piano

Recorded on August 30, 2014 - September 5, 2014 at The Motor Music Studios in Mechelen, Belgium.
DSD Recording. Engineered, Edited & Mastered by Steven Maes.

foobar2000 1.4.8 / Dynamic Range Meter 1.1.1

––––––––––––––––––––––––––––––––––––––––
Analyzed: Isabelle van Keulen; Hannes Minnaar / Complete sonatas for piano and violin CD1
––––––––––––––––––––––––––––––––––––––––

DR Peak RMS Duration Track
––––––––––––––––––––––––––––––––––––––––
DR14 -6.82 dB -30.38 dB 8:00 01-Sonata No. 1 in D major op. 12/1; Allegro con brio
DR14 -7.21 dB -31.72 dB 6:35 02-Sonata No. 1 in D major op. 12/1; Tema con variazioni: Andante con moto
DR14 -7.59 dB -30.77 dB 4:23 03-Sonata No. 1 in D major op. 12/1; Rondo: Allegro
DR14 -6.10 dB -30.90 dB 6:02 04-Sonata No. 2 in A major op. 12/2; Allegro vivace
DR14 -10.66 dB -33.49 dB 5:21 05-Sonata No. 2 in A major op. 12/2; Andante, più tosto allegretto
DR14 -8.30 dB -31.76 dB 5:04 06-Sonata No. 2 in A major op. 12/2; Allegro piacevole
DR14 -5.85 dB -29.91 dB 7:36 07-Sonata No. 3 in E-flat major op. 12/3; Allegro con spirito
DR15 -8.30 dB -33.32 dB 5:43 08-Sonata No. 3 in E-flat major op. 12/3; Adagio con molta espressione
DR14 -6.82 dB -30.01 dB 4:04 09-Sonata No. 3 in E-flat major op. 12/3; Rondo: Allegro molto
––––––––––––––––––––––––––––––––––––––––

Number of tracks: 9
Official DR value: DR14

Samplerate: 2822400 Hz / PCM Samplerate: 176400 Hz
Channels: 6
Bits per sample: 1
Bitrate: 16934 kbps
Codec: DST64
================================================================================

––––––––––––––––––––––––––––––––––––––––
Analyzed: Isabelle van Keulen; Hannes Minnaar / Complete sonatas for piano and violin CD2
––––––––––––––––––––––––––––––––––––––––

DR Peak RMS Duration Track
––––––––––––––––––––––––––––––––––––––––
DR14 -6.49 dB -29.54 dB 7:11 01-Sonata No. 4 in a minor op. 23; Presto
DR13 -11.37 dB -32.79 dB 7:53 02-Sonata No. 4 in a minor op. 23; Andante scherzoso, più allegretto
DR15 -5.62 dB -30.54 dB 5:24 03-Sonata No. 4 in a minor op. 23; Allegro molto
DR15 -5.67 dB -30.89 dB 9:39 04-Sonata No. 5 in F major op. 24; Allegro
DR14 -10.29 dB -33.73 dB 5:09 05-Sonata No. 5 in F major op. 24; Adagio molto espressivo
DR13 -10.18 dB -31.37 dB 1:14 06-Sonata No. 5 in F major op. 24; Scherzo: Allegro molto
DR14 -9.22 dB -31.33 dB 6:15 07-Sonata No. 5 in F major op. 24; Rondo: Allegro ma non troppo
DR14 -10.41 dB -32.43 dB 7:42 08-Sonata No. 6 in A major op. 30/1; Allegro
DR13 -12.36 dB -33.57 dB 6:22 09-Sonata No. 6 in A major op. 30/1; Adagio molto espressivo
DR14 -7.45 dB -32.10 dB 7:33 10-Sonata No. 6 in A major op. 30/1; Allegretto con variazioni
––––––––––––––––––––––––––––––––––––––––

Number of tracks: 10
Official DR value: DR14

Samplerate: 2822400 Hz / PCM Samplerate: 176400 Hz
Channels: 6
Bits per sample: 1
Bitrate: 16934 kbps
Codec: DST64
================================================================================

––––––––––––––––––––––––––––––––––––––––
Analyzed: Isabelle van Keulen; Hannes Minnaar / Complete sonatas for piano and violin CD3
––––––––––––––––––––––––––––––––––––––––

DR Peak RMS Duration Track
––––––––––––––––––––––––––––––––––––––––
DR14 -6.05 dB -29.56 dB 7:36 01-Sonata No. 7 in c minor op. 30/2; Allegro con brio
DR14 -9.75 dB -33.17 dB 8:42 02-Sonata No. 7 in c minor op. 30/2; Adagio cantabile
DR15 -5.87 dB -30.92 dB 3:47 03-Sonata No. 7 in c minor op. 30/2; Scherzo: Allegro
DR14 -6.35 dB -30.03 dB 5:02 04-Sonata No. 7 in c minor op. 30/2; Finale: Allegro; Presto
DR13 -10.05 dB -31.16 dB 6:06 05-Sonata No. 8 in G major op. 30/3; Allegro assai
DR13 -11.63 dB -32.84 dB 7:04 06-Sonata No. 8 in G major op. 30/3; Tempo di minuetto, ma molto moderato e grazioso
DR14 -7.58 dB -30.55 dB 3:25 07-Sonata No. 8 in G major op. 30/3; Allegro vivace
DR15 -6.73 dB -32.07 dB 10:26 08-Sonata No. 10 in G major op. 96; Allegro moderato
DR13 -14.22 dB -33.81 dB 5:52 09-Sonata No. 10 in G major op. 96; Adagio espressivo
DR14 -8.18 dB -31.51 dB 1:54 10-Sonata No. 10 in G major op. 96; Scherzo: Allegro
DR15 -5.72 dB -31.73 dB 8:09 11-Sonata No. 10 in G major op. 96; Poco allegretto
––––––––––––––––––––––––––––––––––––––––

Number of tracks: 11
Official DR value: DR14

Samplerate: 2822400 Hz / PCM Samplerate: 176400 Hz
Channels: 6
Bits per sample: 1
Bitrate: 16934 kbps
Codec: DST64
================================================================================

––––––––––––––––––––––––––––––––––––––––
Analyzed: Isabelle van Keulen; Hannes Minnaar / Complete sonatas for piano and violin CD4
––––––––––––––––––––––––––––––––––––––––

DR Peak RMS Duration Track
––––––––––––––––––––––––––––––––––––––––
DR15 -5.86 dB -29.70 dB 13:32 01-Sonata No. 9 in A minor op. 47; Adagio sostenuto - Presto - Adagio
DR14 -9.42 dB -32.85 dB 14:55 02-Sonata No. 9 in A minor op. 47; Andante con variazioni
DR14 -5.22 dB -30.68 dB 8:32 03-Sonata No. 9 in A minor op. 47; Presto
––––––––––––––––––––––––––––––––––––––––

Number of tracks: 3
Official DR value: DR14

Samplerate: 2822400 Hz / PCM Samplerate: 176400 Hz
Channels: 6
Bits per sample: 1
Bitrate: 16934 kbps
Codec: DST64
================================================================================

––––––––––––––––––––––––––––––––––––––––
Analyzed: Isabelle van Keulen; Hannes Minnaar / Complete sonatas for piano and violin CD1
––––––––––––––––––––––––––––––––––––––––

DR Peak RMS Duration Track
––––––––––––––––––––––––––––––––––––––––
DR15 -6.08 dB -26.42 dB 8:00 01-Sonata No. 1 in D major op. 12/1; Allegro con brio
DR15 -6.97 dB -28.19 dB 6:35 02-Sonata No. 1 in D major op. 12/1; Tema con variazioni: Andante con moto
DR15 -7.23 dB -26.92 dB 4:23 03-Sonata No. 1 in D major op. 12/1; Rondo: Allegro
DR15 -5.58 dB -27.14 dB 6:02 04-Sonata No. 2 in A major op. 12/2; Allegro vivace
DR16 -10.53 dB -31.05 dB 5:21 05-Sonata No. 2 in A major op. 12/2; Andante, più tosto allegretto
DR15 -8.37 dB -28.29 dB 5:04 06-Sonata No. 2 in A major op. 12/2; Allegro piacevole
DR14 -5.61 dB -25.87 dB 7:36 07-Sonata No. 3 in E-flat major op. 12/3; Allegro con spirito
DR18 -7.61 dB -30.73 dB 5:43 08-Sonata No. 3 in E-flat major op. 12/3; Adagio con molta espressione
DR14 -7.02 dB -25.97 dB 4:04 09-Sonata No. 3 in E-flat major op. 12/3; Rondo: Allegro molto
––––––––––––––––––––––––––––––––––––––––

Number of tracks: 9
Official DR value: DR15

Samplerate: 2822400 Hz / PCM Samplerate: 176400 Hz
Channels: 2
Bits per sample: 1
Bitrate: 5645 kbps
Codec: DST64
================================================================================

––––––––––––––––––––––––––––––––––––––––
Analyzed: Isabelle van Keulen; Hannes Minnaar / Complete sonatas for piano and violin CD2
––––––––––––––––––––––––––––––––––––––––

DR Peak RMS Duration Track
––––––––––––––––––––––––––––––––––––––––
DR15 -5.98 dB -25.41 dB 7:11 01-Sonata No. 4 in a minor op. 23; Presto
DR15 -10.87 dB -29.82 dB 7:53 02-Sonata No. 4 in a minor op. 23; Andante scherzoso, più allegretto
DR16 -5.61 dB -26.67 dB 5:24 03-Sonata No. 4 in a minor op. 23; Allegro molto
DR17 -5.36 dB -27.19 dB 9:39 04-Sonata No. 5 in F major op. 24; Allegro
DR16 -10.21 dB -31.55 dB 5:09 05-Sonata No. 5 in F major op. 24; Adagio molto espressivo
DR14 -10.07 dB -27.73 dB 1:14 06-Sonata No. 5 in F major op. 24; Scherzo: Allegro molto
DR15 -8.97 dB -27.72 dB 6:15 07-Sonata No. 5 in F major op. 24; Rondo: Allegro ma non troppo
DR15 -9.92 dB -29.23 dB 7:42 08-Sonata No. 6 in A major op. 30/1; Allegro
DR14 -12.57 dB -31.14 dB 6:22 09-Sonata No. 6 in A major op. 30/1; Adagio molto espressivo
DR16 -6.72 dB -28.78 dB 7:33 10-Sonata No. 6 in A major op. 30/1; Allegretto con variazioni
––––––––––––––––––––––––––––––––––––––––

Number of tracks: 10
Official DR value: DR15

Samplerate: 2822400 Hz / PCM Samplerate: 176400 Hz
Channels: 2
Bits per sample: 1
Bitrate: 5645 kbps
Codec: DST64
================================================================================

––––––––––––––––––––––––––––––––––––––––
Analyzed: Isabelle van Keulen; Hannes Minnaar / Complete sonatas for piano and violin CD3
––––––––––––––––––––––––––––––––––––––––

DR Peak RMS Duration Track
––––––––––––––––––––––––––––––––––––––––
DR15 -5.80 dB -25.47 dB 7:36 01-Sonata No. 7 in c minor op. 30/2; Allegro con brio
DR17 -9.35 dB -30.48 dB 8:42 02-Sonata No. 7 in c minor op. 30/2; Adagio cantabile
DR17 -5.49 dB -27.20 dB 3:47 03-Sonata No. 7 in c minor op. 30/2; Scherzo: Allegro
DR15 -5.92 dB -26.04 dB 5:02 04-Sonata No. 7 in c minor op. 30/2; Finale: Allegro; Presto
DR14 -9.45 dB -27.47 dB 6:06 05-Sonata No. 8 in G major op. 30/3; Allegro assai
DR14 -11.33 dB -29.89 dB 7:04 06-Sonata No. 8 in G major op. 30/3; Tempo di minuetto, ma molto moderato e grazioso
DR15 -7.22 dB -26.71 dB 3:25 07-Sonata No. 8 in G major op. 30/3; Allegro vivace
DR16 -6.47 dB -28.81 dB 10:26 08-Sonata No. 10 in G major op. 96; Allegro moderato
DR14 -13.33 dB -31.62 dB 5:52 09-Sonata No. 10 in G major op. 96; Adagio espressivo
DR15 -7.91 dB -27.99 dB 1:54 10-Sonata No. 10 in G major op. 96; Scherzo: Allegro
DR17 -5.61 dB -28.31 dB 8:09 11-Sonata No. 10 in G major op. 96; Poco allegretto
––––––––––––––––––––––––––––––––––––––––

Number of tracks: 11
Official DR value: DR15

Samplerate: 2822400 Hz / PCM Samplerate: 176400 Hz
Channels: 2
Bits per sample: 1
Bitrate: 5645 kbps
Codec: DST64
================================================================================

––––––––––––––––––––––––––––––––––––––––
Analyzed: Isabelle van Keulen; Hannes Minnaar / Complete sonatas for piano and violin CD4
––––––––––––––––––––––––––––––––––––––––

DR Peak RMS Duration Track
––––––––––––––––––––––––––––––––––––––––
DR16 -5.66 dB -25.62 dB 13:32 01-Sonata No. 9 in A minor op. 47; Adagio sostenuto - Presto - Adagio
DR16 -9.09 dB -29.96 dB 14:55 02-Sonata No. 9 in A minor op. 47; Andante con variazioni
DR15 -5.45 dB -26.83 dB 8:32 03-Sonata No. 9 in A minor op. 47; Presto
––––––––––––––––––––––––––––––––––––––––

Number of tracks: 3
Official DR value: DR15

Samplerate: 2822400 Hz / PCM Samplerate: 176400 Hz
Channels: 2
Bits per sample: 1
Bitrate: 5645 kbps
Codec: DST64


Thanks to AnnabelLee!
Uncompressed SACD ISO size > 3,16 GB
>