Itamar Borochov - Boomerang (2016) [Official Digital Download 24/88]

Posted By: HDV
Itamar Borochov - Boomerang (2016) [Official Digital Download 24/88]

Itamar Borochov - Boomerang (2016)
FLAC (tracks) 24-bit/88,2 kHz | Time - 52:15 minutes | 1,02 GB
Studio Master, Official Digital Download | Artwork: Digital booklet

If he wanted to, trumpeter Itamar Borochov could awe the audiences by showing his virtuosity on his instrument. But at the age of 32, this Israeli-born but Brooklyn-based musician since 2007, a student of Junior Mance, Charles Tolliver or Cecil Bridgewater, has chosen to go further: telling a story that connects Lower Manhattan to North Africa, modern Israel and ancient Bukhara, a story we find in his album "Boomerang".


Nowadays there are no more tenors and trumpeters, like Jonas Kaufmann and the young Israeli Itamar Borochov, but only exceptional tenors and star percussionists, or the other way around, to name just two exponents of the music scene. It does not matter whether these stars radiate exceptionally bright for artistic or purely marketing-driven reasons: main thing is, there is extensive radiation on the way. This generalizing and non-binding jubilation tires music consumers and offers no decision criterion for the acquisition of this or that album. It is best to forgo the use of these taciturn and completely empty jubilations and start doing so by turning our attention to the exponent of the album Boomerang, the trumpeter Itamar Borochov, who is praised being a “star” in all previous reviews. This is also because, thanks to his unquestionable ability, he does not need this kind of cheering through the press.

On Boomerang, we experience Itamar Borochov as a trumpeter in the group of his current quartet, including his brother Avri Borochov on the bass, Michael King on the piano, and the percussionist Jay Sawyer. Having grown up in Israel, the trumpeter has absorbed the influences of Arab and African musicians quasi with mother's milk. In New York, he finally expanded his musical horizon towards jazz. After the visit of the New School for Jazz and Contemporary Music, he realized that his musical orientation, which had been gained in the Israeli homeland, would be best expressed in jazz. The New York jazz clubs confirmed him in his decision to conquer the world of contemporary jazz as a trumpeter and composer as his own, and the audience's reaction confirmed this decision as well.

On his album, Boomerang, recorded in Paris in late 2015, it is easy to see that Itamar Borochov, fusing the western and middle-eastern sound world, has found his very own style in jazz. We encounter the Middle Eastern sound world modified, but as such recognizable only in Eastern Lullaby. Apart from that, this sound world is only remotely discernable by one or another twist in the pianist’s play or a sudden twist of the percussion, so strongly it is sublimated into a completely new sound and a surprisingly variable rhythm just as typical phrases and moods of the Western sound world of jazz, which seem shortly to surface similar to a Déja Vue, before not after all they prove themselves as elements of the very own sound language of Itamar Borochov.

A great album, on which new musical paths are convincingly pursued. An album that has the finest recording technology that makes you forget that between what you hear and the recording location a lot of hardware is used, so naturally does the Itamar Borochov Quartet sound on Boomerang.

Tracklist:

01 - Tangerines
02 - Shimshon
03 - Eastern Lullaby
04 - Jones Street
05 - Adon Olam
06 - Jaffa Tune
07 - Avri's Tune
08 - Ça va bien
09 - Wanderer Song
10 - Prayer

Produced by Laborie Jazz. Recorded by Boris Darley at Studio Sextan.
Mixed by Brian Montgomery. Mastered by Raphaël Jonin.

Musicians:
Itamar Borochov - trumpet, vocals on "9"
Michael King - piano
Avri Borochov - bass, oud on "8-9", Sazbush, vocals on "9"
Jay Sawyer - drums
Guest musician:
Yisrael Borochov - Jumbush, vocals on "9"

Analyzed: Itamar Borochov / Boomerang
––––––––––––––––––––––––––––––––––––––––

DR Peak RMS Duration Track
––––––––––––––––––––––––––––––––––––––––
DR11 -1.84 dB -17.95 dB 2:42 01-Tangerines
DR8 -0.01 dB -11.58 dB 9:56 02-Shimshon
DR8 -0.01 dB -10.54 dB 1:58 03-Eastern Lullaby
DR9 -0.01 dB -10.89 dB 6:49 04-Jones Street
DR9 -0.01 dB -11.42 dB 4:20 05-Adon Olam
DR6 -0.01 dB -8.73 dB 9:37 06-Jaffa Tune
DR8 -0.01 dB -12.04 dB 3:04 07-Avri's Tune
DR8 -0.01 dB -9.67 dB 4:47 08-Ça va bien
DR7 -0.01 dB -12.05 dB 5:10 09-Wanderer Song
DR12 -0.04 dB -16.15 dB 3:52 10-Prayer
––––––––––––––––––––––––––––––––––––––––

Number of tracks: 10
Official DR value: DR9

Samplerate: 88200 Hz
Channels: 2
Bits per sample: 24
Bitrate: 2428 kbps
Codec: FLAC
================================================================================


Thanks to the Original customer!