Jackie Cain & Roy Kral - A Wilder Alias (1974/2016) [Official Digital Download 24bit/192kHz]

Posted By: HDV
Jackie Cain & Roy Kral - A Wilder Alias (1974/2016) [Official Digital Download 24bit/192kHz]

Jackie Cain & Roy Kral - A Wilder Alias (1974/2016)
FLAC (tracks) 24 bit/192 kHz | Time - 32:49 minutes | 1,43 GB
Studio Master, Official Digital Download | Artwork: Front cover

"A Wilder Alias" is an album by American vocalists Jackie Cain and Roy Kral featuring performances recorded in 1973 and released on the CTI label in 1974.

Jazz vocal duo Jackie Cain & Roy Kral's 1974 CTI release A Wilder Alias features the brilliant vocal interplay and crisply harmonized lines the two were known for, albeit in a more modal and experimental setting befitting the aesthetic of the time period. Rather than covering standards here, most of the melodies are sung without actual lyrics – and the lyrics that are here are more like sung poetry – making for vocals that blend right in next to the other instruments. In that sense, such tracks as the sprightly, swinging "Niki's Song," the expansive title track, and the fast-moving "Waltz for Dana" bring to mind something along the lines of McCoy Tyner – Kral is a superb keyboardist as well as singer – backing the vocal ensemble Free Design. It also doesn't hurt that joining Jackie & Roy here are bassist Harvie Swartz, drummer Steve Gadd, vibraphonist Roy Pennington, flutist Hubert Laws, and saxophonist Joe Farrell. These are ambitious, funky, and somewhat fusion-style cuts that fans of '70s jazz should certainly check out.

Tracklist:

01 - A Wilder Alias
02 - Niki's Song
03 - Waltz For Dana
04 - The Way We Are
05 - Good and Rich

Produced by Creed Taylor. Engineered by Rudy Van Gelder.
Recorded at Van Gelder Studio in Englewood Cliffs, New Jersey in December 1973.
Recording supervision by Don Sebesky. Arranged by Roy Kral.

Musicians:
Jackie Cain - vocals
Roy Kral - vocals, electric piano
Roy Pennington - vibraphone
Joe Farrell - tenor saxophone, soprano saxophone
Hubert Laws - flute
Harvie Swartz - bass
Steve Gadd - drums

Analyzed: Jackie Cain & Roy Kral / A Wilder Alias
––––––––––––––––––––––––––––––––––––––––

DR Peak RMS Duration Track
––––––––––––––––––––––––––––––––––––––––
DR10 -0.01 dB -12.60 dB 5:12 01-A Wilder Alias
DR11 -0.01 dB -14.14 dB 6:24 02-Niki's Song
DR12 -0.01 dB -14.22 dB 4:22 03-Waltz For Dana
DR11 -0.01 dB -12.30 dB 6:11 04-The Way We Are
DR11 -0.01 dB -14.16 dB 10:41 05-Good and Rich
––––––––––––––––––––––––––––––––––––––––

Number of tracks: 5
Official DR value: DR11

Samplerate: 192000 Hz
Channels: 2
Bits per sample: 24
Bitrate: 5938 kbps
Codec: FLAC
================================================================================


Thanks to the Original customer!