Tags
Language
Tags

Jackie McLean - New Soil (1959) [Analogue Productions 2010] PS3 ISO + DSD64 +Hi-Res FLAC

Posted By: HDAtall
Jackie McLean - New Soil (1959) [Analogue Productions 2010] PS3 ISO + DSD64 +Hi-Res FLAC

Jackie McLean - New Soil (1959) [APO Remaster 2010]
PS3 Rip | SACD ISO | DSD64 Stereo > 1-bit/2.8224 MHz | 44:46 minutes | Scans included | 1,29 GB
or DSD64 2.0 Stereo (from SACD-ISO to Tracks.dsf) > 1-bit/2.8224 MHz | Scans included | 1,15 GB
or FLAC 2.0 (carefully converted & encoded to tracks) 24bit/88,2 kHz | Scans included | 976 MB

New Soil is an album by American saxophonist Jackie McLean recorded in 1959 and released on the Blue Note label. It features McLean in a quintet with trumpeter Donald Byrd, pianist Walter Davis Jr., bassist Paul Chambers and drummer Pete La Roca.

New Soil wasn't the first session Jackie McLean recorded for Blue Note, but it was the first one released, and as the title suggests, the first glimmerings of McLean's desire to push beyond the limits of bop are already apparent. They're subtle, of course, and nowhere near as pronounced as they would be in just a few years' time, but – as with the 1959 material later issued on Jackie's Bag – hints of Ornette Coleman's stream-of-consciousness melodic freedom are beginning to find their way into McLean's improvisations. His playing is just a touch more angular than the ear expects, especially given the very bluesy nature of pieces like McLean's 11-minute vamp, "Hip Strut," and pianist Walter Davis, Jr.'s infectious boogie-woogie "Greasy." Coleman's influence is most apparent on McLean's "Minor Apprehension," where the freewheeling, Coleman-esque main theme is paralleled by trumpeter Donald Byrd in a definite nod to Don Cherry. What's more, drummer Pete LaRoca takes a surprisingly free solo of significant length toward the end of the track. However, the cut that the musicians seem to dig into the most is Davis' twisting, turning bopper "Davis Cup," which sports a rhumba beat and a bevy of exciting solos. It could be argued that McLean never recorded a bad album for Blue Note, and New Soil got his career with the label off to a terrifically stimulating start.

Tracklist:

01. Hip Strut
02. Minor Apprehension
03. Greasy
04. Sweet Cakes
05. Davis Cup
06. Formidable

Personnel
Jackie McLean - alto saxophone
Donald Byrd - trumpet
Walter Davis Jr. - piano
Paul Chambers - bass
Pete LaRoca - drums

Mastered for this SACD by Mastered by Kevin Gray & Steve Hoffman.

foobar2000 1.6.11 / Dynamic Range Meter 1.1.1

––––––––––––––––––––––––––––––––––––––––
Analyzed: Jackie McLean / New Soil
––––––––––––––––––––––––––––––––––––––––

DR Peak RMS Duration Track
––––––––––––––––––––––––––––––––––––––––
DR15 -6.44 dB -25.78 dB 11:19 01-Hip Strut
DR14 -6.76 dB -24.74 dB 7:34 02-Minor Apprehension
DR15 -4.87 dB -23.85 dB 7:25 03-Greasy
DR15 -6.15 dB -26.02 dB 6:45 04-Sweet Cakes
DR14 -7.94 dB -26.64 dB 5:29 05-Davis Cup
DR15 -4.93 dB -22.88 dB 6:15 06-Formidable
––––––––––––––––––––––––––––––––––––––––

Number of tracks: 6
Official DR value: DR15

Samplerate: 2822400 Hz / PCM Samplerate: 176400 Hz
Channels: 2
Bits per sample: 1
Bitrate: 5645 kbps
Codec: DSD64


Thanks to starwanderer & ManWhoCan!
Uncompressed SACD ISO size > 1,8 GB
>