Tags
Language
Tags

Jackson Browne - Hold Out (1980/2013) [Official Digital Download 24bit/96kHz]

Posted By: HDV
Jackson Browne - Hold Out (1980/2013) [Official Digital Download 24bit/96kHz]

Jackson Browne - Hold Out (1980/2013)
FLAC (tracks) 24 bit/96 kHz | Time - 38:10 minutes | 815 MB
Studio Master, Official Digital Download | Artwork: Front cover

If Jackson Browne had convincingly lowered the bar set by his first three albums on his fourth and fifth ones, his sixth, Hold Out, found him once again seeking some measure of satisfaction, albeit in reduced circumstances. His songs were less philosophical, but they were also more personal. In "Of Missing Persons," he once again took on a eulogy as his subject, but unlike "Song to Adam" or "For a Dancer," there the song was directed to his late friend's daughter and encouraged her recovery: it was more a song for the living than for the dead. Newly aware of the world around him ("Boulevard"), he was also newly sensitive to others, notably on the mutual dependency song "Call It a Loan." But the personal tone sometimes made him less sure-footed as a performer; "Hold on Hold Out," the traditional big, long, last song on the album, was awkwardly, not winningly, intimate, just as the attention-grabbing lead-off track, "Disco Apocalypse," was merely foolish instead of whatever it may have been intended to be (satire? drama?). If Browne was still trying to write himself out of the cul-de-sac he had created for himself early on, Hold Out represented an earnest attempt that nevertheless fell short.

Tracklist:

01 - Disco Apocalypse
02 - Hold Out
03 - That Girl Could Sing
04 - Boulevard
05 - Of Missing Persons
06 - Call It A Loan
07 - Hold On Hold Out

Analyzed: Jackson Browne / Lawyers In Love
––––––––––––––––––––––––––––––––––––––––

DR Peak RMS Duration Track
––––––––––––––––––––––––––––––––––––––––
DR12 -0.80 dB -15.92 dB 4:20 01-Lawyers In Love
DR12 -1.35 dB -16.20 dB 3:58 02-On The Day
DR12 -0.60 dB -16.22 dB 4:44 03-Cut It Away
DR13 -0.75 dB -15.92 dB 4:05 04-Downtown
DR14 -0.43 dB -16.74 dB 4:52 05-Tender Is The Night
DR14 -1.15 dB -16.31 dB 3:37 06-Knock On Any Door
DR14 -0.42 dB -18.09 dB 5:22 07-Say It Isn't True
DR12 -0.11 dB -14.56 dB 4:03 08-For A Rocker
––––––––––––––––––––––––––––––––––––––––

Number of tracks: 8
Official DR value: DR13

Samplerate: 96000 Hz
Channels: 2
Bits per sample: 24
Bitrate: 3074 kbps
Codec: FLAC
================================================================================


Thanks to the Original customer!