Please register here if you want to download anything!

If domain in your address bar is different from the list below
PLEASE LEAVE THAT SITE IMMEDIATELY
❗IT'S A DANGEROUS FAKE❗



Spicy Magazines for Men! ;-)

Jacqueline du Pré - Elgar, Delius: Cello Concertos (1965/2012) [EMI Classics' Remaster 2011] PS3 ISO + Hi-Res FLAC

Posted By: HDAtall
Jacqueline du Pré - Elgar, Delius: Cello Concertos (1965/2012) [EMI Classics' Remaster 2011] PS3 ISO + Hi-Res FLAC

Jacqueline du Pré - Elgar: Sea Pictures Op. 37 / Cello Concerto in E minor Op. 85 (1965/2012)
& Delius: Songs of Farewell / A Song Before Sunrise / Concerto for Cello and Orchestra

PS3 Rip | 2x SACD ISO | DSD64 Stereo > 1-bit/2.8224 MHz | 104:20 minutes | Full Artwork | 2,97 GB
or FLAC 2.0 Stereo(converted with foobar2000 to tracks) 24bit/96 kHz | Complete Artwork | 2,33 GB

The Signature Collection is a brand new series from EMI Classics featuring the finest catalog recordings released for the first time ever in high resolution format. The expert engineers at Abbey Road Studios who remastered the original EMI recordings for Hybrid Super Audio CD series have breathed new life into these iconic catalog recordings. Each title in the Signature Collection is beautifully presented in a full-color illustrated hardback book. The liner notes explore mot only the rich music but also the story behind original LP covers. Also included are never before seen photographs of the original master tapes.

Jacqueline du Pre's recording of Elgar's Cello Concerto with Sir John Barbirolli conducting the London Symphony Orchestra is widely recognized as the definitive recording of the Elgar, the one against which all others are measured. Du Pre's career was cut tragically short by Multiple Sclerosis, forcing her to quit performing in 1973. She died in 1987 at age 42. She was married to the famous conductor/pianist Daniel Barenboim. Du Pre was known for her aggressive playing style and flawless technique. Thanks in large measure to EMI, there are a goodly number of du Pre recordings still in circulation, some of which feature both du Pre and Barenboim. The EMI Signature Series CD being reviewed here lives up to Du Pre's advance billing as one of the most stunningly gifted musical artists of our time, and it showcases the Elgar, as, indeed it should. There is a reason this performance is famous. Du Pre's Elgar is one of those rare performances that you can listen to a thousand times and never tire of it, a truly wonderful listening experience. Not adding this CD to your library would be a major omission. – customer's review at amazon.com

Tracklist:

CD1 #01. Edward Elgar - Cello Concerto in E minor Op. 85: I. Adagio - Moderato
CD1 #02. Edward Elgar - Cello Concerto in E minor Op. 85: II. Lento - Allegro molto
CD1 #03. Edward Elgar - Cello Concerto in E minor Op. 85: III. Adagio
CD1 #04. Edward Elgar - Cello Concerto in E minor Op. 85: IV. Allegro - Moderato - Allegro, ma non troppo
CD1 #05. Edward Elgar - Sea Pictures Op. 37: I. Sea Slumber-Song (Roden Noel)
CD1 #06. Edward Elgar - Sea Pictures Op. 37: II. In Haven (Capri) (C. Alice Elgar)
CD1 #07. Edward Elgar - Sea Pictures Op. 37: III. Sabbath Morning at Sea (Elizabeth Barrett Browning)
CD1 #08. Edward Elgar - Sea Pictures Op. 37: IV. Where Corals Lie (Richard Garnett)
CD1 #09. Edward Elgar - Sea Pictures Op. 37: V. The Swimmer (Adam Lindsay Gordon)

CD2 #01. Frederick Delius - Songs of Farewell: No.1: How sweet the silent backward tracings!
CD2 #02. Frederick Delius - Songs of Farewell: No.2: I stand as on some mighty eagle's beak
CD2 #03. Frederick Delius - Songs of Farewell: No.3: Passage to you!
CD2 #04. Frederick Delius - Songs of Farewell: No.4: Joy, shipmate, joy!
CD2 #05. Frederick Delius - Songs of Farewell: No.5: Now finale to the shore
CD2 #06. Frederick Delius - A Song Before Sunrise
CD2 #07. Frederick Delius - Concerto for Cello and Orchestra: Lento
CD2 #08. Frederick Delius - Concerto for Cello and Orchestra: Con moto tranquillo
CD2 #09. Frederick Delius - Concerto for Cello and Orchestra: Lento
CD2 #10. Frederick Delius - Concerto for Cello and Orchestra: Con moto tranquillo
CD2 #11. Frederick Delius - Concerto for Cello and Orchestra: Allegramente

Performers
Jacqueline du Pré - cello
Dame Janet Baker: mezzo-soprano (Sea Pictures)
Royal Choral Society (Songs of Farewell)
London Symphony Orchestra, conducted by Sir John Barbirolli (Disc One)
Royal Philharmonic Orchestra, conducted by Sir Malcolm Sargent (Disc Two)

foobar2000 1.4.6 / Dynamic Range Meter 1.1.1

––––––––––––––––––––––––––––––––––––––––
Analyzed: JACQUELINE DU PRE / DAME JANET BAKER / SIR JOHN BARBIROLLI / SIR MALCOLM SARGENT / ELGAR & DELIUS: CELLO CONCERTOS(DISC 1)
––––––––––––––––––––––––––––––––––––––––

DR Peak RMS Duration Track
––––––––––––––––––––––––––––––––––––––––
DR14 -6.08 dB -26.40 dB 8:01 01-Cello Concerto in E minor Op. 85 (2011 Digital Remaster): I. Adagio - Moderato
DR15 -6.46 dB -27.09 dB 4:32 02-Cello Concerto in E minor Op. 85 (2011 Digital Remaster): II. Lento - Allegro molto
DR14 -10.68 dB -29.78 dB 5:13 03-Cello Concerto in E minor Op. 85 (2011 Digital Remaster): III. Adagio
DR14 -5.59 dB -25.30 dB 12:22 04-Cello Concerto in E minor Op. 85 (2011 Digital Remaster): IV. Allegro - Moderato - Allegro, ma non troppo
DR15 -8.67 dB -28.90 dB 5:05 05-Sea Pictures Op. 37 (2011 Digital Remaster): I. Sea Slumber-Song (Roden Noel)
DR12 -11.67 dB -28.88 dB 2:06 06-Sea Pictures Op. 37 (2011 Digital Remaster): II. In Haven (Capri) (C. Alice Elgar)
DR12 -6.58 dB -23.57 dB 6:20 07-Sea Pictures Op. 37 (2011 Digital Remaster): III. Sabbath Morning at Sea (Elizabeth Barrett Browning)
DR11 -8.06 dB -25.52 dB 4:11 08-Sea Pictures Op. 37 (2011 Digital Remaster): IV. Where Corals Lie (Richard Garnett)
DR11 -5.70 dB -21.90 dB 6:05 09-Sea Pictures Op. 37 (2011 Digital Remaster): V. The Swimmer (Adam Lindsay Gordon)
––––––––––––––––––––––––––––––––––––––––

Number of tracks: 9
Official DR value: DR13

Samplerate: 2822400 Hz / PCM Samplerate: 176400 Hz
Channels: 2
Bits per sample: 1
Bitrate: 5645 kbps
Codec: DSD64

====================================================================================

Analyzed: JACQUELINE DU PRE / DAME JANET BAKER / SIR JOHN BARBIROLLI / SIR MALCOLM SARGENT / ELGAR & DELIUS: CELLO CONCERTOS (DISC 2)
––––––––––––––––––––––––––––––––––––––––

DR Peak RMS Duration Track
––––––––––––––––––––––––––––––––––––––––
DR9 -7.93 dB -20.99 dB 3:54 01-Songs of Farewell (2011 Digital Remaster): No.1: How sweet the silent backward tracings!
DR12 -7.67 dB -25.70 dB 4:41 02-Songs of Farewell (2011 Digital Remaster): No.2: I stand as on some mighty eagle's beak
DR9 -7.94 dB -22.49 dB 4:39 03-Songs of Farewell (2011 Digital Remaster): No.3: Passage to you!
DR8 -7.85 dB -18.31 dB 1:46 04-Songs of Farewell (2011 Digital Remaster): No.4: Joy, shipmate, joy!
DR8 -7.70 dB -20.56 dB 4:30 05-Songs of Farewell (2011 Digital Remaster): No.5: Now finale to the shore
DR10 -7.13 dB -22.51 dB 6:13 06-A Song Before Sunrise (2011 Digital Remaster)
DR12 -11.34 dB -28.18 dB 1:02 07-Concerto for Cello and Orchestra (2011 Digital Remaster): Lento
DR10 -6.04 dB -21.79 dB 6:19 08-Concerto for Cello and Orchestra (2011 Digital Remaster): Con moto tranquillo
DR13 -7.02 dB -26.47 dB 7:36 09-Concerto for Cello and Orchestra (2011 Digital Remaster): Lento
DR11 -10.12 dB -25.68 dB 2:00 10-Concerto for Cello and Orchestra (2011 Digital Remaster): Con moto tranquillo
DR14 -5.50 dB -25.13 dB 7:46 11-Concerto for Cello and Orchestra (2011 Digital Remaster): Allegramente
––––––––––––––––––––––––––––––––––––––––

Number of tracks: 11
Official DR value: DR11

Samplerate: 2822400 Hz / PCM Samplerate: 176400 Hz
Channels: 2
Bits per sample: 1
Bitrate: 5645 kbps
Codec: DSD64


Thanks to ManWhoCan!
Uncompressed SACD ISO size > 2,16 + 2,02 GB

Jacqueline du Pré - Dvořák: Cello Concerto & Silent Woods (1971)
>