Tags
Language
Tags

Jaga Jazzist - Starfire (2015) [Official Digital Download]

Posted By: HDV
Jaga Jazzist - Starfire (2015)  [Official Digital Download]

Jaga Jazzist - Starfire (2015)
FLAC (tracks) 24-bit/44,1 kHz | Time - 49:54 minutes | 599 MB
Studio Master, Official Digital Download | Artwork: Front cover

Jaga Jazzist (also known as Jaga) is an experimental jazz band from Norway. This is the band's sixth studio album. "Starfire" is a beautiful, visceral, utterly exhilarating piece of work that keeps spiralling up and away, structurally complex, musically rigorous, but without ever losing touch with a certain earthy sensuality and human sympathy.

Growing in strength means shrinking the track list as the ever-evolving Jaga Jazzist begin to prefer suite-sized music on this 2015 LP. Two of the five cuts on Starfire pass the ten-minute mark, as the Norwegian ensemble blends jazz, space rock, and hippie-aimed trip-hop into one free-flowing mass of funk that deserves to stretch its legs. Consider it an earned exhale after the buttoned-up classicism of the previous album, Live with Britten Sinfonia, but whatever the reason, the highlights are the grooves that last the longest with "Big City Music", "Oban", and the title cut taking win, place, and show. The mood is free but heavy as ominous bits wind in and out, and while Starfire certainly isn't as game-changing as LPs like Agharta and Pangaea, the mood and spirit is that of Miles in the '70s, but with the mechanically precise rhythms one would expect from a group born in the era of acid jazz.

Tracklist:

01 - Starfire
02 - Big City Music
03 - Shinkansen
04 - Oban
05 - Prungen

Musicians:
Marcus Forsgren – guitars, effects
Even Ormestad – bass, keyboards
Andreas Mjøs – vibraphone, guitars, drums, electronics
Line Horntveth – tuba, percussion
Martin Horntveth – drums, drum-machines
Lars Horntveth – tenor sax, bass-clarinet, guitars, keyboards
Øystein Moen – keyboards
Erik Johannessen – trombone, percussion

Analyzed: Jaga Jazzist / Starfire
––––––––––––––––––––––––––––––––––––––––

DR Peak RMS Duration Track
––––––––––––––––––––––––––––––––––––––––
DR6 -0.16 dB -8.31 dB 8:47 01-Starfire
DR6 -0.16 dB -9.13 dB 14:07 02-Big City Music
DR8 -0.16 dB -12.29 dB 7:43 03-Shinkansen
DR6 -0.16 dB -8.57 dB 12:41 04-Oban
DR5 -0.16 dB -8.43 dB 6:35 05-Prungen
––––––––––––––––––––––––––––––––––––––––

Number of tracks: 5
Official DR value: DR6

Samplerate: 44100 Hz
Channels: 2
Bits per sample: 24
Bitrate: 1676 kbps
Codec: FLAC
================================================================================


Thanks to the Original customer!