Subcategories

James and Lucky Peterson - If You Can't Fix It (2004) [2.0 & 5.1] PS3 ISO + Hi-Res FLAC

Posted By: HDAtall
James and Lucky Peterson - If You Can't Fix It (2004) [2.0 & 5.1] PS3 ISO + Hi-Res FLAC

James & Lucky Peterson - If You Can't Fix It (2004) [2.0 & 5.1]
PS3 Rip | SACD ISO | DST64 2.0 & 5.1 > 1-bit/2.8224 MHz | 50:41 minutes | Scans included | 4,09 GB
or FLAC 2.0 Stereo (converted with foobar2000 to tracks) 24bit/88,2 kHz | Full Scans included | 1,17 MB

Lucky Peterson is an American musician who plays contemporary blues, fusing soul, R&B, gospel and rock and roll. He plays guitar and keyboards. Music journalist Tony Russell, in his book The Blues - From Robert Johnson to Robert Cray has said, "he may be the only blues musician to have had national television exposure in short pants".

A rare new release from the folk and blues reissue specialist label JSP, James & Lucky Peterson's If You Can't Fix It is the first full-length collaboration by the father and son bluesmen. Neither man overshadows the other, as they take turns showcasing their own songs and each man's uniformly fine guitar playing. The best track by far is James' fiery "Cripple Man," one of his most passionate and driven performances in years, on a song that has the potential to become a modern Chicago-style blues standard. Lucky's standout is the epic "Too Young to Die," which evolves into an extended guitar duel between father and son. In a rather unusual turn for traditional electric blues recordings, If You Can't Fix It was released in the nascent SACD format before it was available as a standard compact disc.

Tracklist:

01. There Is Strange Things Happenin' Every Day
02. Time To Go
03. Cripple Man
04. Somewhere In Between
05. If You Can't Fix It
06. Never Take Sand To The Beach
07. Get Down
08. Too Young To Die
09. Don't Give The Devil No Ground
10. More Harm Than Good

Personnel
Lucky Peterson - guitar, organ
James Peterson - vocals
Jamie Finegan - trumpet
Robert Feiner - tenor saxophone
Jason Arnold - drums

foobar2000 1.3.5 / Dynamic Range Meter 1.1.1

––––––––––––––––––––––––––––––––––––––––
Analyzed: Lucky Peterson with James Peterson / Together Again
––––––––––––––––––––––––––––––––––––––––

DR Peak RMS Duration Track
––––––––––––––––––––––––––––––––––––––––
DR12 -5.23 dB -19.82 dB 4:31 01-There Is Strange Things Happenin' Every Day
DR14 -5.69 dB -21.34 dB 4:29 02-Time To Go
DR13 -5.18 dB -20.24 dB 5:01 03-Cripple Man
DR12 -5.31 dB -19.85 dB 4:58 04-Somewhere In Between
DR15 -5.51 dB -23.07 dB 5:32 05-If You Can't Fix It
DR13 -5.84 dB -22.47 dB 4:10 06-Never Take Sand To The Beach
DR13 -5.73 dB -20.74 dB 6:30 07-Get Down
DR13 -5.56 dB -20.70 dB 7:42 08-Too Young To Die
DR14 -5.74 dB -22.02 dB 3:41 09-Don't Give The Devil No Ground
DR13 -5.31 dB -20.40 dB 4:06 10-More Harm Than Good
––––––––––––––––––––––––––––––––––––––––

Number of tracks: 10
Official DR value: DR13

Samplerate: 2822400 Hz / PCM Samplerate: 88200 Hz
Channels: 6
Bits per sample: 24
Bitrate: 16934 kbps
Codec: DST64
================================================================================

––––––––––––––––––––––––––––––––––––––––
Analyzed: Lucky Peterson with James Peterson / Together Again
––––––––––––––––––––––––––––––––––––––––

DR Peak RMS Duration Track
––––––––––––––––––––––––––––––––––––––––
DR7 -3.45 dB -12.90 dB 4:31 01-There Is Strange Things Happenin' Every Day
DR7 -5.36 dB -13.41 dB 4:29 02-Time To Go
DR8 -3.74 dB -12.85 dB 5:02 03-Cripple Man
DR7 -4.35 dB -12.70 dB 4:58 04-Somewhere In Between
DR8 -4.14 dB -14.49 dB 5:32 05-If You Can't Fix It
DR8 -4.40 dB -14.52 dB 4:10 06-Never Take Sand To The Beach
DR7 -5.62 dB -14.01 dB 6:31 07-Get Down
DR7 -3.91 dB -12.53 dB 7:43 08-Too Young To Die
DR8 -4.69 dB -14.06 dB 3:41 09-Don't Give The Devil No Ground
DR8 -4.02 dB -13.07 dB 4:11 10-More Harm Than Good
––––––––––––––––––––––––––––––––––––––––

Number of tracks: 10
Official DR value: DR7

Samplerate: 2822400 Hz / PCM Samplerate: 88200 Hz
Channels: 2
Bits per sample: 24
Bitrate: 5645 kbps
Codec: DST64


Thanks to audioguy_net!
Uncompressed SACD ISO size > 3,89 GB
>