Subcategories

James Horner - A Beautiful Mind: Original Motion Picture Soundtrack (2002) [2.0 & 5.1] PS3 ISO + Hi-Res FLAC

Posted By: HDAtall
James Horner - A Beautiful Mind: Original Motion Picture Soundtrack (2002) [2.0 & 5.1] PS3 ISO + Hi-Res FLAC

James Horner - A Beautiful Mind: Original Motion Picture Soundtrack (2002)
PS3 Rip | SACD ISO | DST64 2.0 & 5.1 > 1-bit/2.8224 MHz | 71:25 minutes | Full Art (PDF) | 4,55 GB
or FLAC 2.0 Stereo (converted with foobar2000 to tracks) 24bit/88,2 kHz | Full Art (PDF) | 1,35 GB

This Ron Howard film parlays the troubled story of Nobel laureate John Forbes Nash Jr., a gifted Princeton mathematics professor tormented for decades by paranoid schizophrenia, into something considerably richer than typical Hollywood triumph-against-all-odds fare. Howard has teamed here again with frequent collaborator James Horner, and it's the composer who deftly shades the film's difficult emotional landscape and helps impart a compelling humanity. Horner's first task is not inconsiderable: musically portraying the arcane realm of mathematical theorems that are the story's backdrop. In doing so, the composer leans heavily on modern minimalist technique, bright flourishes that recur briefly throughout an orchestral score that increasingly reflects Nash's bleak inner landscape in its quietly somber and brooding tones. And while Horner has frequently been accused of excessively repeating himself in his scores, the neo-minimalist gambit employed on this reflectively pastoral, postmodernist soundscape neatly nips such criticism in the bud. Nash's triumph is ultimately an intensely personal one, well reflected in Welsh soprano Charlotte Church's lilting performance of the Horner/Will Jennings ballad "All Love Can Be".

Tracklist:

01. A Kaleidescope Of Mathematics
02. Playing A Game Of "GO"
03. Looking For The Next Great Idea
04. Creating "Governing Dynamics"
05. Cracking The Russian Codes
06. Nash Descends Into Parcher's World
07. First Drop-Off, First Kiss
08. The Car Chase
09. Alicia Discovers Nash's Dark World
10. Real Or Imagined?
11. Of One Heart, Of One Mind
12. Saying Goodbye To Those You So Love
13. Teaching Mathematics Again
14. The Prize Of One's Life… The Prize Of One's Mind
15. All Love Can Be
16. Closing Credits

foobar2000 1.3.2 / Dynamic Range Meter 1.1.1

––––––––––––––––––––––––––––––––––––––––
Analyzed: James Horner / A Beautiful Mind
––––––––––––––––––––––––––––––––––––––––

DR Peak RMS Duration Track
––––––––––––––––––––––––––––––––––––––––
DR13 -6.50 dB -29.69 dB 4:58 01-A Kaleidescope Of Mathematics
DR11 -15.51 dB -35.19 dB 3:35 02-Playing A Game Of "GO"
DR12 -5.34 dB -37.09 dB 3:03 03-Looking For The Next Great Idea
DR11 -7.85 dB -30.08 dB 2:33 04-Creating "Governing Dynamics"
DR11 -9.53 dB -30.42 dB 3:22 05-Cracking The Russian Codes
DR11 -16.25 dB -36.47 dB 4:39 06-Nash Descends Into Parcher's World
DR13 -10.65 dB -32.88 dB 5:16 07-First Drop-Off, First Kiss
DR10 -8.85 dB -29.31 dB 2:25 08-The Car Chase
DR13 -7.16 dB -32.66 dB 8:29 09-Alicia Discovers Nash's Dark World
DR14 -5.45 dB -32.03 dB 5:47 10-Real Or Imagined?
DR14 -11.93 dB -37.96 dB 6:21 11-Of One Heart, Of One Mind
DR13 -13.37 dB -35.73 dB 6:44 12-Saying Goodbye To Those You So Love
DR12 -13.01 dB -36.41 dB 3:16 13-Teaching Mathematics Again
DR12 -12.79 dB -36.16 dB 3:03 14-The Prize Of One's Life… The Prize Of One's Mind
DR12 -8.72 dB -34.04 dB 3:18 15-All Love Can Be
DR12 -9.45 dB -31.30 dB 4:37 16-Closing Credits
––––––––––––––––––––––––––––––––––––––––

Number of tracks: 16
Official DR value: DR12

Samplerate: 2822400 Hz / PCM Samplerate: 88200 Hz
Channels: 6
Bits per sample: 24
Bitrate: 16934 kbps
Codec: DST64
================================================================================

––––––––––––––––––––––––––––––––––––––––
Analyzed: James Horner / A Beautiful Mind
––––––––––––––––––––––––––––––––––––––––

DR Peak RMS Duration Track
––––––––––––––––––––––––––––––––––––––––
DR13 -4.93 dB -25.32 dB 4:58 01-A Kaleidescope Of Mathematics
DR10 -13.23 dB -30.14 dB 3:35 02-Playing A Game Of "GO"
DR11 -6.11 dB -33.08 dB 3:03 03-Looking For The Next Great Idea
DR11 -7.31 dB -25.61 dB 2:33 04-Creating "Governing Dynamics"
DR12 -7.89 dB -25.99 dB 3:22 05-Cracking The Russian Codes
DR11 -16.07 dB -32.01 dB 4:39 06-Nash Descends Into Parcher's World
DR13 -9.89 dB -28.38 dB 5:16 07-First Drop-Off, First Kiss
DR11 -8.07 dB -24.79 dB 2:25 08-The Car Chase
DR13 -5.30 dB -28.20 dB 8:29 09-Alicia Discovers Nash's Dark World
DR12 -6.10 dB -28.09 dB 5:47 10-Real Or Imagined?
DR15 -11.80 dB -33.44 dB 6:21 11-Of One Heart, Of One Mind
DR13 -12.33 dB -31.21 dB 6:44 12-Saying Goodbye To Those You So Love
DR12 -13.42 dB -31.81 dB 3:16 13-Teaching Mathematics Again
DR13 -11.16 dB -31.63 dB 3:03 14-The Prize Of One's Life… The Prize Of One's Mind
DR11 -8.82 dB -29.42 dB 3:18 15-All Love Can Be
DR12 -7.52 dB -26.80 dB 4:37 16-Closing Credits
––––––––––––––––––––––––––––––––––––––––

Number of tracks: 16
Official DR value: DR12

Samplerate: 2822400 Hz / PCM Samplerate: 88200 Hz
Channels: 2
Bits per sample: 24
Bitrate: 5645 kbps
Codec: DST64


Thanks to PhantomBlot!
Uncompressed SACD ISO size > 4,27 GB
>
SACD ISO 1
SACD ISO 2
SACD ISO 3
SACD ISO 4
SACD ISO 5
SACD ISO 6

FLAC (Stereo) 1
FLAC (Stereo) 2
>