James Taylor - Before This World (2015) [Official Digital Download 24-bit/96kHz]

Posted By: HDV
James Taylor - Before This World (2015) [Official Digital Download 24-bit/96kHz]

James Taylor - Before This World (2015)
FLAC (tracks) 24-bit/96 kHz | Time - 41:50 minutes | 885 MB
Studio Master, Official Digital Download | Artwork: Digital booklet

"Before This World", five-time Grammy Award winner James Taylor's long-awaited album, is his first collection of new material since 2002's "October Road". Taylor wrote and recorded much of "Before This World" while touring over the past several years.

Recorded primarily at TheBarn in Western Massachusetts, the 10-track album will feature James’s legendary band: Jimmy Johnson, Steve Gadd, Michael Landau, Larry Goldings, Luis Conte, Andrea Zonn, Arnold McCuller, David Lasley and Kate Markowitz, as well as special guests Yo-Yo Ma and Sting. Kim and Henry Taylor provide background vocals on several songs. This hi-res version of "Before This World" was mastered especially for audiophiles with less peak limiting for a much greater dynamic range than the CD version.

James Taylor never sets his guitar down – he spends a good portion of every year satisfying faithful audiences – but he did rest his pen, opting to sit out the 13 years following the release of 2002's October Road. He kept busy with covers albums and Christmas records, but Before This World finds Taylor returning to writing, a habit he abandoned about a decade prior. Often, Before This World contains echoes of the first decade of the new millennium – there is a passing reference to 9/11 in a song about Afghanistan and a love letter to the Boston Red Sox's 2004 World Series win – but Taylor wrote these all in a batch, then recorded them at home with his touring band. Such quick progress gives the record a cozy, unified feeling but, unlike some latter-day JT records, it's not too comfortable. Taylor is randy enough to sing about some "first-class poontang" on the nicely grooving "Stretch of the Highway," a song more notable for a mellow vamp worthy of Steely Dan, the first suggestion there's a bit more variety here than on a typical Taylor platter. He'll ease into his trademark laid-back pop, opening the proceedings with "Today Today Today" and brightening up the midsection with the happy "Watchin' Over Me," but as the record comes toward its conclusion, he takes detours into traditional English folk on "Before This World/Jolly Springtime" and "Wild Mountain Thyme," while etching out a cinematic protest song in "Far Afghanistan." When a record runs only ten tracks and 41 minutes, these departures amount to nearly half the record and turn Before This World into something unexpected: a record as relaxed as the average James Taylor album but one that's also riskier and richer, the right album for him to make at this date.

Tracklist:

01 - Today Today Today
02 - You And I Again
03 - Angels Of Fenway
04 - Stretch Of The Highway
05 - Montana
06 - Watchin’ Over Me
07 - SnowTime
08 - Before This World / Jolly Springtime
09 - Far Afghanistan
10 - Wild Mountain Thyme

Produced, Recorded and Mixed by Dave O'Donnell
Recorded at TheBarn, Washington, MA.
Mixed at TheBarn and Studio D.
Mastered by Ted Jensen at Sterling Sound.

Analyzed: James Taylor / Before This World
––––––––––––––––––––––––––––––––––––––––

DR Peak RMS Duration Track
––––––––––––––––––––––––––––––––––––––––
DR10 -0.56 dB -12.01 dB 3:09 01-Today Today Today
DR9 -0.64 dB -12.42 dB 3:53 02-You And I Again
DR9 -0.58 dB -11.31 dB 3:18 03-Angels Of Fenway
DR10 -0.50 dB -11.81 dB 5:32 04-Stretch Of The Highway
DR12 -0.66 dB -13.33 dB 3:26 05-Montana
DR10 -0.52 dB -12.38 dB 4:08 06-Watchin’ Over Me
DR10 -2.03 dB -14.21 dB 5:49 07-SnowTime
DR11 -0.67 dB -13.84 dB 5:35 08-Before This World / Jolly Springtime
DR10 -0.53 dB -12.70 dB 4:04 09-Far Afghanistan
DR10 -2.29 dB -16.55 dB 2:57 10-Wild Mountain Thyme
––––––––––––––––––––––––––––––––––––––––

Number of tracks: 10
Official DR value: DR10

Samplerate: 96000 Hz
Channels: 2
Bits per sample: 24
Bitrate: 2586 kbps
Codec: FLAC
================================================================================


Thanks to the Original customer!