Tags
Language
Tags

James Taylor - Flag (1979) [MFSL 2011] PS3 ISO + DSD64 + Hi-Res FLAC

Posted By: HDAtall
James Taylor - Flag (1979) [MFSL 2011] PS3 ISO + DSD64 + Hi-Res FLAC

James Taylor - Flag (1979) [MFSL 2011]
PS3 Rip | SACD ISO | DSD64 2.0 > 1-bit/2.8224 MHz | 42:59 minutes | Scans included | 1,29 GB
or DSD64 Stereo (from SACD-ISO to Tracks.dsf) > 1 bit/2,8 MHz | Full Scans included | 1,21 GB
or FLAC (carefully converted & encoded to tracks) 24bit/96 kHz | Full Scans included | 951 MB
Mobile Fidelity Sound Lab # UDSACD 2071

Flag is the ninth studio album by American singer-songwriter James Taylor. The album was not well received, but it did provide a hit in Taylor's cover version of the Gerry Goffin/Carole King composition "Up on the Roof" (Taylor's final top 40 hit). "Rainy Day Man", which was originally featured on Taylor's self-titled debut album, was re-recorded. The signal flag that makes up the cover of the album is "O (Oscar)", standing for man overboard.

James Taylor followed his double-platinum Columbia Records label debut, JT, with this hodgepodge of a record. There are pointless covers of the Beatles' "Day Tripper" and the Drifters' "Up on the Roof," a remake of Taylor's own "Rainy Day Man," songs written for the failed Broadway musical Working, and a few inconsequential new Taylor compositions. The usual brain trust (producer Peter Asher), and the usual backup team (Danny "Kootch" Kortchmar, Dan Grolnick, Leland Sklar, Russ Kunkel) were on board, but the cruise was a snooze.

Tracklist:

01. Company Man
02. Johnnie Come Back
03. Day Tripper
04. I Will Not Lie For You
05. Brother Trucker
06. Is That The Way You Look?
07. B.S.U.R.
08. Rainy Day Man
09. Millworker
10. Up On The Roof
11. Chanson Francaise
12. Sleep Come Free Me

Mastered by Rob LoVerde at Mobile Fidelity Sound Lab, Sebastopol, CA.

foobar2000 1.6.7 / Dynamic Range Meter 1.1.1

––––––––––––––––––––––––––––––––––––––––
Analyzed: James Taylor / Flag
––––––––––––––––––––––––––––––––––––––––

DR Peak RMS Duration Track
––––––––––––––––––––––––––––––––––––––––
DR12 -6.32 dB -23.19 dB 3:46 01-Company Man
DR13 -6.21 dB -21.42 dB 3:55 02-Johnnie Come Back
DR12 -6.02 dB -20.14 dB 4:26 03-Day Tripper
DR13 -6.23 dB -22.23 dB 3:16 04-I Will Not Lie For You
DR12 -6.08 dB -21.98 dB 4:02 05-Brother Trucker
DR14 -6.07 dB -22.90 dB 2:03 06-Is That The Way You Look?
DR13 -6.20 dB -21.81 dB 3:23 07-B.S.U.R.
DR14 -5.78 dB -22.44 dB 3:02 08-Rainy Day Man
DR16 -6.04 dB -24.78 dB 3:52 09-Millworker
DR13 -6.03 dB -21.28 dB 4:22 10-Up On The Roof
DR13 -5.92 dB -23.65 dB 2:05 11-Chanson Francaise
DR13 -5.93 dB -22.47 dB 4:46 12-Sleep Come Free Me
––––––––––––––––––––––––––––––––––––––––

Number of tracks: 12
Official DR value: DR13

Samplerate: 2822400 Hz / PCM Samplerate: 176400 Hz
Channels: 2
Bits per sample: 1
Bitrate: 5645 kbps
Codec: DSD64


Thanks to PS³SACD!
Uncompressed SACD ISO size > 1,72 GB
>