Tags
Language
Tags

James Taylor - JT (1977) [MFSL 2011] PS3 ISO + DSD64 + Hi-Res FLAC

Posted By:
James Taylor - JT (1977) [MFSL 2011] PS3 ISO + DSD64 + Hi-Res FLAC

James Taylor - JT (1977) [MFSL 2011]
PS3 Rip | ISO | SACD DSD64 2.0 > 1-bit/2.8224 MHz | 37:54 minutes | Scans included | 1,12 GB
or DSD64 Stereo (from SACD-ISO to Tracks.dsf) > 1 bit/2,8 MHz | Full Scans included | 1,06 GB
or FLAC (carefully converted & encoded to tracks) 24bit/96 kHz | Full Scans included | 843 MB
Mobile Fidelity Sound Lab # UDSACD 2070

JT is the eighth studio album by American singer-songwriter James Taylor. It was originally released on June 22, 1977 via Columbia Records, making it his first album released for the label. The album peaked at number 4 on the Billboard 200 albums chart in the United States and was Taylor's highest-charting album since Mud Slide Slim and the Blue Horizon.

On his last couple of Warner Brothers albums, Gorilla and In the Pocket, James Taylor seemed to be converting himself from the shrinking violet, too-sensitive-to-live "rainy day man" of his early records into a mainstream, easy-listening crooner with a sunny outlook. JT, his debut album for Columbia Records, was something of a defense of this conversion. Returning to the autobiographical, Taylor declared his love for Carly Simon ("There We Are"), but expressed some surprise at his domestic bliss. "Isn't it amazing a man like me can feel this way?" he sang in the opening song, "Your Smiling Face" (a Top 40 hit). At the same time, domesticity could have its temporary depressions ("Another Grey Morning"). The key track was "Secret O' Life," which Taylor revealed as "enjoying the passage of time." Working with his long-time backup band of Danny Kortchmar, Leland Sklar, and Russell Kunkel, and with Peter Asher back in the producer's chair, Taylor also enjoyed the playing of music, mixing his patented acoustic guitar-based folk sound with elements of rock, blues, and country. He even made the country charts briefly with "Bartender's Blues," a genre exercise complete with steel guitar and references to "honky tonk angels" that he would later re-record with George Jones. The album's Top Ten hit was Taylor's winning remake of Jimmy Jones' "Handy Man," which replaced the grit of the original with his characteristic warmth. JT was James Taylor's best album since Mud Slide Slim and the Blue Horizon because it acknowledged the darkness of his earlier work while explaining the deliberate lightness of his current viewpoint, and because it was his most consistent collection in years. Fans responded: JT sold better than any Taylor album since Sweet Baby James.

Tracklist:

01. Your Smiling Face
02. There We Are
03. Honey Don't Leave L.A.
04. Another Grey Morning
05. Bartender's Blues
06. Secret O' Life
07. Handy Man
08. I Was Only Telling A Lie
09. Looking For Love on Broadway
10. Terra Nova
11. Traffic Jam
12. If I Keep My Heart Out Of Sight

Mastered by Shawn R. Britton at Mobile Fidelity Sound Lab, Sebastopol, CA.

foobar2000 1.6.7 / Dynamic Range Meter 1.1.1

––––––––––––––––––––––––––––––––––––––––
Analyzed: James Taylor / J T
––––––––––––––––––––––––––––––––––––––––

DR Peak RMS Duration Track
––––––––––––––––––––––––––––––––––––––––
DR12 -6.18 dB -20.58 dB 2:47 01-Your Smiling Face
DR13 -5.91 dB -22.73 dB 3:01 02-There We Are
DR12 -6.21 dB -20.20 dB 3:06 03-Honey Don't Leave L.A.
DR12 -6.41 dB -21.56 dB 2:44 04-Another Grey Morning
DR13 -5.97 dB -21.74 dB 4:12 05-Bartender's Blues
DR13 -6.55 dB -22.64 dB 3:35 06-Secret O' Life
DR13 -6.00 dB -20.95 dB 3:18 07-Handy Man
DR12 -6.11 dB -21.05 dB 3:24 08-I Was Only Telling A Lie
DR12 -5.91 dB -21.36 dB 2:21 09-Looking For Love on Broadway
DR13 -5.87 dB -22.17 dB 4:32 10-Terra Nova
DR15 -6.03 dB -24.37 dB 1:59 11-Traffic Jam
DR13 -6.17 dB -22.12 dB 2:55 12-If I Keep My Heart Out Of Sight
––––––––––––––––––––––––––––––––––––––––

Number of tracks: 12
Official DR value: DR13

Samplerate: 2822400 Hz / PCM Samplerate: 176400 Hz
Channels: 2
Bits per sample: 1
Bitrate: 5645 kbps
Codec: DSD64


Thanks to PS³SACD!
Uncompressed SACD ISO size > 1,52 GB
>