Janet Feder - Songs With Words (2012) MCH PS3 ISO + Hi-Res FLAC

Posted By: HDAtall
Janet Feder - Songs With Words (2012) MCH PS3 ISO + Hi-Res FLAC

Janet Feder - Songs With Words (2012)
PS3 Rip | SACD ISO | DSD64 2.0 & DST64 5.1 > 1-bit/2.8224 MHz | 44:13 minutes | Full Scans included | 3,4 GB
or FLAC 2.0 Stereo (converted with foobar2000 to tracks) 24bit/88,2 kHz | 44:19 min | Scans included | 843 MB
Features Stereo and Multichannel Surround sound

A native of Boulder, Colorado Janet Feder is most widely known for pioneering composition for prepared guitar. She has been featured on numerous recordings, radio programs, and film scores. Deeply layered, textured and intimate, "Songs With Words", features Janet Feder's prepared guitar compositions accompanying her voice.

Innovative guitarist Janet Feder draws her own sonic territory on this first collection of original songs. The Colorado-based guitarist is known for her extended techniques on the prepared guitar, and her work was first introduced to the wider public on the like-minded collection of innovative guitarists I Never Meta Guitar—Solo Guitars for the XXI Century) (Clean Feed, 2010). Prior to that, she recorded with close conspirators such as Fred Frith on Ironic Universe.

Songs with Words was a project initiated by producer Joe Shepard, who encouraged Feder to use his studio. At first, she envisioned writing songs for others to sing, but since Shepard wanted to record within two weeks, Feder ended up singing the songs herself and playing all the guitar parts. Her usage of small metal objects that alter the sound of the acoustic guitar strings enable her to explore new tunings and an expanded sonic palette. Her singing is innocent and unassuming, focused on the topics of the songs, most of them inspired by the political, anti-war folk songs of the sixties. But unlike other folk songs, Feder's guitar playing and vocal delivery are not rooted in any familiar folk tradition.

All the songs were recorded live, without any digital effects; just Feder, her guitar—surrounded by 15 microphones—and occasional guests. The songs have a clear structure: strong melodic themes, verses and choruses, but they still all sound mysterious, demanding repeated listening before allowing themselves to be deciphered fully. She recited her pleas for a more compassionate world in a reserved, fragile voice, even when she wishes that "soldiers will refuse to fight" on "My Blackest Crow." Her range sounds clearer on the instrumental "A Thousand Million Petty Tyrants." Her cover of Bob Dylan's "Blowin' In The Wind" sounds as if she already knows that its call for action is not enough. The somber, melancholic beauty of the personal "Plan to Live" brings to mind the songs of Nick Drake. "Ocean Wall" is a silent sonic poem that imagines a peaceful scenery. Songs with Words is a unique, haunting gem.

Tracklist:

01. Heater
02. Your Country Is Like A Wall
03. My Blackest Crow
04. A Thousand Million Petty Tyrants
05. Blowin' In The Wind
06. O The Sky Falling Moment
07. Plan To Live
08. White Men Landing
09. Trees Are Burning
10. Janet Feder - Songs With Words
11. Ocean Wall

Recorded, Mixed and Mastered by Mike Yach. SACD authoring Gus Skinas, Super Audio Centre.
Pure DSD - 32 channel Sonoma DSD Workstation. Recorded in 2010 at Immersive Studios, Boulder, Colorado.

foobar2000 1.5.4 / Dynamic Range Meter 1.1.1

––––––––––––––––––––––––––––––––––––––––
Analyzed: Janet Feder / Songs With Words
––––––––––––––––––––––––––––––––––––––––

DR Peak RMS Duration Track
––––––––––––––––––––––––––––––––––––––––
DR14 -8.11 dB -33.51 dB 5:17 01-Heater
DR17 -6.42 dB -31.56 dB 4:44 02-Your Country Is Like A Wall
DR11 -15.03 dB -36.52 dB 3:29 03-My Blackest Crow
DR12 -7.09 dB -31.95 dB 3:59 04-A Thousand Million Petty Tyrants
DR10 -6.72 dB -30.76 dB 4:41 05-Blowin' In The Wind
DR14 -8.11 dB -31.64 dB 3:42 06-O The Sky Falling Moment
DR13 -4.41 dB -32.83 dB 7:03 07-Plan To Live
DR9 -12.81 dB -34.48 dB 3:46 08-White Men Landing
DR14 -4.10 dB -34.16 dB 3:20 09-Trees Are Burning
DR20 -59.88 dB -88.58 dB 0:18 10-Janet Feder - Songs With Words
DR12 -19.06 dB -41.95 dB 3:55 11-Ocean Wall
––––––––––––––––––––––––––––––––––––––––

Number of tracks: 11
Official DR value: DR13

Samplerate: 88200 Hz
Channels: 6
Bits per sample: 24
Bitrate: 16934 kbps
Codec: DST64
================================================================================

––––––––––––––––––––––––––––––––––––––––
Analyzed: Janet Feder / Songs With Words
––––––––––––––––––––––––––––––––––––––––

DR Peak RMS Duration Track
––––––––––––––––––––––––––––––––––––––––
DR14 -6.06 dB -28.06 dB 5:17 01-Heater
DR16 -4.26 dB -25.96 dB 4:44 02-Your Country Is Like A Wall
DR13 -15.39 dB -32.91 dB 3:29 03-My Blackest Crow
DR15 -6.94 dB -28.86 dB 3:59 04-A Thousand Million Petty Tyrants
DR14 -6.91 dB -27.43 dB 4:41 05-Blowin' In The Wind
DR14 -7.30 dB -26.83 dB 3:42 06-O The Sky Falling Moment
DR18 -4.11 dB -27.40 dB 7:03 07-Plan To Live
DR13 -13.39 dB -30.74 dB 3:46 08-White Men Landing
DR19 -4.19 dB -33.70 dB 3:20 09-Trees Are Burning
DR4 -54.38 dB -60.85 dB 0:18 10-Janet Feder - Songs With Words
DR12 -19.42 dB -38.07 dB 4:01 11-Ocean Wall
––––––––––––––––––––––––––––––––––––––––

Number of tracks: 11
Official DR value: DR14

Samplerate: 88200 Hz
Channels: 2
Bits per sample: 24
Bitrate: 5645 kbps
Codec: DSD64


Thanks to KingCrim!
Uncompressed SACD ISO size > 3,78 GB
>