Janet Feder - Thisclose (2015) MCH PS3 ISO + Hi-Res FLAC

Posted By: HDAtall
Janet Feder - Thisclose (2015) MCH PS3 ISO + Hi-Res FLAC

Janet Feder - T H I S C L O S E (2015)
PS3 Rip | SACD ISO | DSD64 2.0 & DST64 5.1 > 1-bit/2.8224 MHz | 46:45 minutes | Scans included | 3,46 GB
or FLAC 2.0 Stereo (converted with foobar2000 to tracks) 24bit/88,2 kHz | Full Scans included | 853 MB
Features Stereo and Multichannel Surround Sound

Colorado-based guitarist Janet Feder has developed a highly personal musical language, drawing inspiration from folk, jazz, minimalism, classical, avant-garde and even pop. Since the early nineties she began experimenting with her guitar, preparing it in different tunings, attaching objects to the strings, developing a unique original sound of her own. "T H I S C L O S E", her fifth solo album, is Feder's most fully realized album, featuring nine haunting songs. She manages to create a intimate sonic atmosphere in each of these songs, still, each sounds as a distilled essence of a much larger and deeper musical idea, leaving the listener with lingering thoughts. In these songs, Feder explores the timbral scope of her prepared guitars, let these instruments resonate in the studio space, surrounding the guitars with delicate handmade and found sounds and minor instrumental contributions from an impressive set of supporting musicians.

On three songs, including the opening "Crows" and "Ticking time Bomb," Feder sings in a fragile, unassuming voice, gently manipulated in the studio. Her singing intensifies the delicate, deeply emotional core of her songs. This kind of intimate fragility, as "Ticking time Bomb," is dressed with disturbing, vivid images contrasted with the simple plucking of Feder banjo and the contemplative playing of Mark Harris on the bass clarinet. The touching "Angels & Exits" is the most beautiful one, delivered with Feder disarming honest voice. Some of her instrumental pieces, as "No Apology" and "You As Part Of A Whole," have an elusive, cinematic quality, suggestive of lonesome, distant, barren scenery. Others as "Happy Everyday, Me" and "Happy Everyday, You" are charged with innocent optimist spirit. The instrumental title-piece is the most complex one, confronting intricate layers of spare, fractured guitar lines with a dense of dark atmospheric sounds. Unique and highly moving music.

Tracklist:

01. Crows
02. Ticking Time Bomb
03. Happy Everyday, me
04. No Apology
05. Happy Everyday, you
06. You As Part Of A Whole
07. Angles & Exits
08. She Sleeps With The Sky
09. T H I S C L O S E

Produced by Joe Shepard with Mike Yach and Janet Feder.
Pure DSD - 32 channel Sonoma DSD Workstation. Recorded and Mixed by Mike Yach.
Stereo Mastering by Dominick Maita at Airshow Mastering.
Surround Mastering & SACD Authoring by Gus Skinas.

foobar2000 1.5.4 / Dynamic Range Meter 1.1.1

––––––––––––––––––––––––––––––––––––––––
Analyzed: Janet Feder / T H I S C L O S E
––––––––––––––––––––––––––––––––––––––––

DR Peak RMS Duration Track
––––––––––––––––––––––––––––––––––––––––
DR14 -6.91 dB -26.41 dB 4:55 01-Crows
DR15 -7.31 dB -40.26 dB 4:06 02-Ticking Time Bomb
DR9 -16.57 dB -33.94 dB 2:58 03-Happy Everyday, me
DR15 -22.68 dB -46.63 dB 3:32 04-No Apology
DR10 -17.29 dB -35.56 dB 2:51 05-Happy Everyday, you
DR14 -16.68 dB -44.47 dB 4:59 06-You As Part Of A Whole
DR10 -15.41 dB -35.43 dB 5:41 07-Angles & Exits
DR12 -13.06 dB -34.97 dB 7:02 08-She Sleeps With The Sky
DR16 -15.55 dB -45.19 dB 10:41 09-T H I S C L O S E
––––––––––––––––––––––––––––––––––––––––

Number of tracks: 9
Official DR value: DR13

Samplerate: 88200 Hz
Channels: 6
Bits per sample: 24
Bitrate: 16934 kbps
Codec: DST64
================================================================================

––––––––––––––––––––––––––––––––––––––––
Analyzed: Janet Feder / T H I S C L O S E
––––––––––––––––––––––––––––––––––––––––

DR Peak RMS Duration Track
––––––––––––––––––––––––––––––––––––––––
DR14 -6.30 dB -23.33 dB 4:55 01-Crows
DR19 -5.22 dB -32.95 dB 4:06 02-Ticking Time Bomb
DR11 -11.87 dB -26.32 dB 2:58 03-Happy Everyday, me
DR14 -12.33 dB -33.29 dB 3:32 04-No Apology
DR11 -12.86 dB -27.22 dB 2:51 05-Happy Everyday, you
DR16 -10.32 dB -32.97 dB 4:59 06-You As Part Of A Whole
DR12 -14.34 dB -29.38 dB 5:41 07-Angles & Exits
DR14 -11.24 dB -29.21 dB 7:02 08-She Sleeps With The Sky
DR18 -9.68 dB -35.02 dB 10:41 09-T H I S C L O S E
––––––––––––––––––––––––––––––––––––––––

Number of tracks: 9
Official DR value: DR14

Samplerate: 88200 Hz
Channels: 2
Bits per sample: 24
Bitrate: 5645 kbps
Codec: DSD64


Thanks to PS³SACD!
Uncompressed SACD ISO size > 3,94 GB
>