Jean-Efflam Bavouzet - Haydn: Piano Sonatas, Vol. 9 (2021) [Official Digital Download 24/96]

Posted By: delpotro
Jean-Efflam Bavouzet - Haydn: Piano Sonatas, Vol. 9 (2021) [Official Digital Download 24/96]

Jean-Efflam Bavouzet - Haydn: Piano Sonatas, Vol. 9 (2021)
FLAC (tracks) 24-bit/96 kHz | Front Cover & Digital Booklet | Time - 72:13 minutes | 1,1 GB
Classical | Label: Chandos Records, Official Digital Download

Following his acclaimed recording of Beethoven’s concertos with the Swedish Chamber Orchestra, Jean-Efflam Bavouzet returns to his exploration of Haydn’s sonatas, described by the magazine Gramophone as ‘a major modern recording landmark in the Haydn discography’. As in previous instalments, Bavouzet has programmed sonatas from Haydn’s early, middle, and late periods, giving added interest to the recital. Sonatas Nos 10 and 2, dating from the 1750s and ’60s respectively, share the key of C major, but differ in form. The short No. 2 was almost certainly written for pupils whilst Haydn was working as a teacher. No. 10 is more ambitious and extensive. Sonatas Nos 41 and 44 date from the early 1770s and show some influence from C.P.E. Bach and the Sturm und Drang movement. More virtuosic than the earlier sonatas, in these the trademark humour of Haydn is also more evident. Sonatas Nos 52 and 53 were composed a decade later and are conspicuously more demanding, technically and musically. As in the case of the previous volumes, this album was recorded at Potton Hall in Suffolk, on a Yamaha CFX Concert Grand Piano.

Tracklist:
1. Piano Sonata No. 10 in C Major, Hob. XVI:1: I. Allegro (02:42)
2. Piano Sonata No. 10 in C Major, Hob. XVI:1: II. Andante (03:28)
3. Piano Sonata No. 10 in C Major, Hob. XVI:1: III. Menuet - Trio (02:27)
4. Piano Sonata No. 44 in F Major, Hob. XVI:29: I. Moderato (07:57)
5. Piano Sonata No. 44 in F Major, Hob. XVI:29: II. Adagio (04:32)
6. Piano Sonata No. 44 in F Major, Hob. XVI:29: III. Tempo di menuet (04:18)
7. Piano Sonata No. 41 in A Major, Op. 13 No. 6, Hob. XVI:26: I. Allegro moderato (08:20)
8. Piano Sonata No. 41 in A Major, Op. 13 No. 6, Hob. XVI:26: II. Menuetto al rovesico - Trio (02:21)
9. Piano Sonata No. 41 in A Major, Op. 13 No. 6, Hob. XVI:26: III. Finale. Presto (00:52)
10. Piano Sonata No. 2 in C Major, Hob. XVI:7: I. Allegro moderato (01:08)
11. Piano Sonata No. 2 in C Major, Hob. XVI:7: II. Menuet - Trio (01:58)
12. Piano Sonata No. 2 in C Major, Hob. XVI:7: III. Finale (01:28)
13. Piano Sonata No. 52 in G Major, Op. 30 No. 5, Hob. XVI:39: I. Allegro con brio (04:12)
14. Piano Sonata No. 52 in G Major, Op. 30 No. 5, Hob. XVI:39: II. Adagio (07:35)
15. Piano Sonata No. 52 in G Major, Op. 30 No. 5, Hob. XVI:39: III. Prestissimo (04:17)
16. Piano Sonata No. 53 in E Minor, Hob. XVI:34: I. Presto (05:47)
17. Piano Sonata No. 53 in E Minor, Hob. XVI:34: II. Adagio (05:10)
18. Piano Sonata No. 53 in E Minor, Hob. XVI:34: III. Finale. Vivace molto (03:32)

foobar2000 1.4.1 / Dynamic Range Meter 1.1.1
log date: 2021-02-23 15:46:44

––––––––––––––––––––––––––––––––––––––––
Analyzed: Jean-Efflam Bavouzet / Haydn: Piano Sonatas, Vol. 9
––––––––––––––––––––––––––––––––––––––––

DR Peak RMS Duration Track
––––––––––––––––––––––––––––––––––––––––
DR12 -6.59 dB -23.64 dB 2:43 01-Haydn: Piano Sonata No. 10 in C Major, Hob. XVI:1: I. Allegro
DR12 -13.01 dB -28.79 dB 3:29 02-Haydn: Piano Sonata No. 10 in C Major, Hob. XVI:1: II. Andante
DR13 -9.45 dB -26.76 dB 2:28 03-Haydn: Piano Sonata No. 10 in C Major, Hob. XVI:1: III. Menuet - Trio
DR16 -0.77 dB -22.65 dB 7:57 04-Haydn: Piano Sonata No. 44 in F Major, Hob. XVI:29: I. Moderato
DR13 -9.01 dB -27.30 dB 4:32 05-Haydn: Piano Sonata No. 44 in F Major, Hob. XVI:29: II. Adagio
DR14 -4.80 dB -23.79 dB 4:18 06-Haydn: Piano Sonata No. 44 in F Major, Hob. XVI:29: III. Tempo di menuet
DR14 -5.39 dB -24.08 dB 8:21 07-Haydn: Piano Sonata No. 41 in A Major, Op. 13 No. 6, Hob. XVI:26: I. Allegro moderato
DR14 -8.84 dB -27.70 dB 2:21 08-Haydn: Piano Sonata No. 41 in A Major, Op. 13 No. 6, Hob. XVI:26: II. Menuetto al rovesico - Trio
DR12 -5.73 dB -23.48 dB 0:53 09-Haydn: Piano Sonata No. 41 in A Major, Op. 13 No. 6, Hob. XVI:26: III. Finale. Presto
DR12 -7.35 dB -24.30 dB 1:09 10-Haydn: Piano Sonata No. 2 in C Major, Hob. XVI:7: I. Allegro moderato
DR13 -7.45 dB -25.83 dB 1:58 11-Haydn: Piano Sonata No. 2 in C Major, Hob. XVI:7: II. Menuet - Trio
DR12 -7.99 dB -23.60 dB 1:28 12-Haydn: Piano Sonata No. 2 in C Major, Hob. XVI:7: III. Finale
DR15 -4.88 dB -23.82 dB 4:13 13-Haydn: Piano Sonata No. 52 in G Major, Op. 30 No. 5, Hob. XVI:39: I. Allegro con brio
DR14 -8.12 dB -26.93 dB 7:36 14-Haydn: Piano Sonata No. 52 in G Major, Op. 30 No. 5, Hob. XVI:39: II. Adagio
DR14 -3.93 dB -22.61 dB 4:18 15-Haydn: Piano Sonata No. 52 in G Major, Op. 30 No. 5, Hob. XVI:39: III. Prestissimo
DR13 -4.85 dB -23.09 dB 5:47 16-Haydn: Piano Sonata No. 53 in E Minor, Hob. XVI:34: I. Presto
DR14 -8.07 dB -28.01 dB 5:11 17-Haydn: Piano Sonata No. 53 in E Minor, Hob. XVI:34: II. Adagio
DR13 -4.73 dB -24.27 dB 3:32 18-Haydn: Piano Sonata No. 53 in E Minor, Hob. XVI:34: III. Finale. Vivace molto
––––––––––––––––––––––––––––––––––––––––

Number of tracks: 18
Official DR value: DR13

Samplerate: 96000 Hz
Channels: 2
Bits per sample: 24
Bitrate: 2204 kbps
Codec: FLAC
================================================================================


Thanks to the Original customer!