Tags
Language
Tags

Jean Martinon, Orchestre National De L'O.R.T.F - Debussy: Complete Orchestral Works (1974/2012) [Official 24bit/96kHz]

Posted By:
Jean Martinon, Orchestre National De L'O.R.T.F - Debussy: Complete Orchestral Works (1974/2012) [Official 24bit/96kHz]

Jean Martinon, Orchestre National De L'O.R.T.F - Debussy: Complete Orchestral Works (1974/2012)
FLAC (tracks) 24 bit/96 kHz | Time - 291:53 minutes | 5,47 GB
Studio Master, Official Digital Download | Artwork: Front cover

Renowned conductor Jean Martinon leads the Orchestre National De L’O.R.T.F through masterpieces by Claude Debussy. This is one of the definitive renditions, bursting with unparalleled virtuosity. Both the conductor and the orchestra are in exquisite form. Absolutely essential.

Tracklist:

01 - La Mer : I De l'aube à midi sur la mer
02 - La Mer : II Jeux de vagues
03 - La Mer : III Dialogue du vent et de la mer
04 - Trois Nocturnes : I Nuages
05 - Trois Nocturnes : II Fêtes
06 - Trois Nocturnes : III Sirènes (with women's choir)
07 - Prélude à l'après-midi d'un faune
08 - Marche écossaise
09 - Berceuse héroïque
10 - Musiques pour le Roi Lear : I Fanfare
11 - Musiques pour le Roi Lear : II Le sommeil de Lear
12 - Jeux (poème dansé)
13 - Images : I Gigues
14 - Images : II Ibéria - a) Par les rues et par les chemins
15 - Images : II Iberia - b) Les parfums de la nuit
16 - Images : III Rondes de printemps
17 - Images : II Iberia - c) Le matin d'un jour de fête
18 - Printemps (Suite symphonique, orch. Henri Büsser) : 1ère partie
19 - Printemps (Suite symphonique, orch. Henri Büsser) : 2ème partie
20 - Children's Corner Suite (orch. André Caplet) : Doctor Gradus ad Parnassum
21 - Children's Corner Suite (orch. André Caplet) : Jimbo's lullaby
22 - Children's Corner Suite (orch. André Caplet ) : Serenade for the doll
23 - Children's Corner Suite (orch. André Caplet) : The snow is dancing
24 - Children's Corner Suite (orch. André Caplet) : The little shepherd
25 - Children's Corner Suite (orch. André Caplet) : Golliwogg's cakewalk
26 - Petite Suite (orch. Henri Büsser) : I En bateau
27 - Petite Suite (orch. Henri Büsser) : II Cortège
28 - Petite Suite (orch. Henri Büsser) : III Menuet
29 - Petite Suite (orch. Henri Büsser) : IV Ballet
30 - Danse sacrée et danse profane : I Danse sacrée
31 - Danse sacrée et danse profane : II Danse profane
32 - La Boîte à joujoux (orch. André Caplet) : Prélude
33 - La Boîte à joujoux (orch. André Caplet) : II Le champ de bataille
34 - La Boîte à joujoux (orch. André Caplet) : I Le magasin de jouets
35 - La Boîte à joujoux (orch. André Caplet) : III La bergerie à vendre
36 - La Boîte à joujoux (orch. André Caplet) : IV Après fortune faite
37 - La Boîte à joujoux (orch. André Caplet) : Epilogue
38 - Fantaisie (for piano and orchestra) : I Andante - Allegro
39 - Fantaisie (for piano and orchestra) : II Lento e molto espressivo
40 - Fantaisie (for piano and orchestra) : III Allegro molto
41 - La plus que lente
42 - Première Rapsodie (for orchestra with principal clarinet)
43 - Rapsodie (for orchestra with saxophone solo)
44 - Khamma (Légende dansée - orch. Charles Koechlin)
45 - Danse (Tarentelle styrienne - orch. Maurice Ravel)

2011 EMI Remaster.

About the Mastering:
Four engineers at Abbey Road Studios in London have remastered these historic EMI recordings from their original analogue sources for release in pristine hi-def. Between them, Simon Gibson, Ian Jones, Andy Walter and Allan Ramsay have many years of experience remastering archive recordings for EMI and other record labels. The process always starts with finding all of the records and tapes in EMI's archive in London and comparing different sources and any previous CD reissues. We consult each recording's job file, which contains notes about the recording made by the engineer and producer. For example, this sometimes explain why there is more than one set of tapes to choose from. All of the tapes are generally in good condition and we play them on our Studer A80 π inch tape machine, after careful calibration of its replay characteristics.

In order to have the best digital remastering tools at our disposal for the remastering, we transfer from analogue to the digital domain at 96 KHz and 24-bit resolution using a Prism ADA-8 converter and capture the audio to our SADiE Digital Audio Workstation.

– Simon Gibson, January 2012
Analyzed: Jean Martinon - Choeur De L'Ortf - Choeur Du Théatre National De La Radiodiffusion Française - Orchestre National Ortf / Debussy: Complete Orchestral Works (2011 - Remaster) (1)
Jean Martinon - Orchestre National de la Radiodiffusion Francaise / Debussy: Complete Orchestral Works (2011 - Remaster) (2-5)
Jean Martinon - Orchestre National de l'O.R.T.F. - Aldo Ciccolini / Debussy: Complete Orchestral Works (2011 - Remaster) (6-8)
Jean Martinon - Orchestre National de l'O.R.T.F. - Guy Dangain / Debussy: Complete Orchestral Works (2011 - Remaster) (9)
Jean Martinon - Orchestre National de l'O.R.T.F. - Jean Marie Londeix / Debussy: Complete Orchestral Works (2011 - Remaster) (10)
Jean Martinon - Orchestre National de l'O.R.T.F. - John Leach / Debussy: Complete Orchestral Works (2011 - Remaster) (11)
Jean Martinon - Orchestre National de l'O.R.T.F. - Jules Goetghelock / Debussy: Complete Orchestral Works (2011 - Remaster) (12)
Jean Martinon - Orchestre National de l'O.R.T.F. - Marie Claire Jamet / Debussy: Complete Orchestral Works (2011 - Remaster) (13-14)
Jean Martinon - Orchestre National de l'O.R.T.F. / Debussy: Complete Orchestral Works (2011 - Remaster) (15-27)
Jean Martinon - Orchestre National Ortf - Choeur Du Théatre National De La Radiodiffusion Française / Debussy: Complete Orchestral Works (2011 - Remaster) (28-29)
Jean Martinon - Orchestre National Ortf / Debussy: Complete Orchestral Works (2011 - Remaster) (30-42)
Jean Martinon - Alain Marion - Orchestre National Ortf / Debussy: Complete Orchestral Works (2011 - Remaster) (43)
Jean Martinon - Fabienne Boury - Orchestre National Ortf - Michel Sandrez / Debussy: Complete Orchestral Works (2011 - Remaster) (44)
Jean Martinon - Michel Sandrez - Fabienne Boury - Orchestre National Ortf / Debussy: Complete Orchestral Works (2011 - Remaster) (45)
––––––––––––––––––––––––––––––––––––––––

DR Peak RMS Duration Track
––––––––––––––––––––––––––––––––––––––––
DR11 -0.40 dB -17.33 dB 8:22 06-Trois Nocturnes : III Sirènes (with women's choir)
DR12 -2.17 dB -21.19 dB 4:04 26-Petite Suite (orch. Henri Büsser) : I En bateau
DR12 -0.93 dB -19.05 dB 3:18 27-Petite Suite (orch. Henri Büsser) : II Cortège
DR13 -3.11 dB -23.24 dB 3:01 28-Petite Suite (orch. Henri Büsser) : III Menuet
DR10 -0.38 dB -15.10 dB 3:14 29-Petite Suite (orch. Henri Büsser) : IV Ballet
DR12 -0.63 dB -17.19 dB 8:04 38-Fantaisie (for piano and orchestra) : I Andante - Allegro
DR14 -2.29 dB -21.65 dB 8:29 39-Fantaisie (for piano and orchestra) : II Lento e molto espressivo
DR10 -0.60 dB -16.09 dB 7:22 40-Fantaisie (for piano and orchestra) : III Allegro molto
DR13 -1.04 dB -19.81 dB 8:16 42-Première Rapsodie (for orchestra with principal clarinet)
DR12 -0.58 dB -18.02 dB 10:05 43-Rapsodie (for orchestra with saxophone solo)
DR14 -3.17 dB -23.07 dB 6:06 41-La plus que lente
DR12 -7.92 dB -28.83 dB 2:46 24-Children's Corner Suite (orch. André Caplet) : The little shepherd
DR13 -3.32 dB -22.98 dB 4:40 30-Danse sacrée et danse profane : I Danse sacrée
DR11 -0.63 dB -17.91 dB 4:43 31-Danse sacrée et danse profane : II Danse profane
DR9 -1.44 dB -17.05 dB 2:41 20-Children's Corner Suite (orch. André Caplet) : Doctor Gradus ad Parnassum
DR13 -3.30 dB -23.40 dB 3:58 21-Children's Corner Suite (orch. André Caplet) : Jimbo's lullaby
DR13 -3.14 dB -22.39 dB 2:47 22-Children's Corner Suite (orch. André Caplet ) : Serenade for the doll
DR15 -3.60 dB -24.54 dB 2:57 23-Children's Corner Suite (orch. André Caplet) : The snow is dancing
DR11 -0.43 dB -17.10 dB 2:55 25-Children's Corner Suite (orch. André Caplet) : Golliwogg's cakewalk
DR14 -7.75 dB -30.15 dB 2:31 32-La Boîte à joujoux (orch. André Caplet) : Prélude
DR14 -0.39 dB -19.83 dB 10:39 33-La Boîte à joujoux (orch. André Caplet) : II Le champ de bataille
DR17 -0.39 dB -23.52 dB 9:16 34-La Boîte à joujoux (orch. André Caplet) : I Le magasin de jouets
DR15 -1.83 dB -23.75 dB 6:20 35-La Boîte à joujoux (orch. André Caplet) : III La bergerie à vendre
DR9 -0.38 dB -13.12 dB 1:44 36-La Boîte à joujoux (orch. André Caplet) : IV Après fortune faite
DR14 -0.38 dB -22.05 dB 1:19 37-La Boîte à joujoux (orch. André Caplet) : Epilogue
DR13 -0.58 dB -19.39 dB 20:31 44-Khamma (Légende dansée - orch. Charles Koechlin)
DR12 -0.58 dB -17.95 dB 5:45 45-Danse (Tarentelle styrienne - orch. Maurice Ravel)
DR17 -5.69 dB -29.02 dB 7:40 04-Trois Nocturnes : I Nuages
DR9 -0.38 dB -15.09 dB 6:44 05-Trois Nocturnes : II Fêtes
DR11 -0.38 dB -17.72 dB 9:10 01-La Mer : I De l'aube à midi sur la mer
DR12 -0.39 dB -19.32 dB 7:07 02-La Mer : II Jeux de vagues
DR10 -0.38 dB -15.88 dB 8:17 03-La Mer : III Dialogue du vent et de la mer
DR10 -0.38 dB -15.97 dB 6:29 08-Marche écossaise
DR13 -0.41 dB -20.32 dB 4:52 09-Berceuse héroïque
DR9 -0.40 dB -14.37 dB 1:46 10-Musiques pour le Roi Lear : I Fanfare
DR12 -12.85 dB -30.46 dB 3:20 11-Musiques pour le Roi Lear : II Le sommeil de Lear
DR12 -0.39 dB -17.75 dB 18:17 12-Jeux (poème dansé)
DR11 -0.38 dB -17.41 dB 7:13 13-Images : I Gigues
DR12 -0.36 dB -17.13 dB 7:20 14-Images : II Ibéria - a) Par les rues et par les chemins
DR14 -1.26 dB -21.90 dB 9:06 15-Images : II Iberia - b) Les parfums de la nuit
DR11 -0.38 dB -16.49 dB 4:24 16-Images : III Rondes de printemps
DR11 -0.38 dB -16.27 dB 7:32 17-Images : II Iberia - c) Le matin d'un jour de fête
DR13 -1.19 dB -20.23 dB 10:37 07-Prélude à l'après-midi d'un faune
DR11 -0.39 dB -17.30 dB 9:32 18-Printemps (Suite symphonique, orch. Henri Büsser) : 1ère partie
DR9 -0.38 dB -13.99 dB 6:37 19-Printemps (Suite symphonique, orch. Henri Büsser) : 2ème partie
––––––––––––––––––––––––––––––––––––––––

Number of tracks: 45
Official DR value: DR12

Samplerate: 96000 Hz
Channels: 2
Bits per sample: 24
Bitrate: 2611 kbps
Codec: FLAC
================================================================================


Thanks to the Original customer!