Jean-Michel Jarre - Electronica 1: The Time Machine (2015) [Official Digital Download] RE-UP

Posted By: HDV
Jean-Michel Jarre - Electronica 1: The Time Machine (2015) [Official Digital Download] RE-UP

Jean-Michel Jarre - Electronica 1: The Time Machine (2015)
FLAC (tracks) 24-bit/48 kHz | Time - 138:53 minutes | 1,78 GB
Studio Master, Official Digital Download | Artwork: Front cover

Electronica 1: The Time Machine is the eighteenth studio album by French electronic musician Jean Michel Jarre, released on 16 October 2015. It was recorded with the help of 15 separate collaborators, including Vince Clarke, Gesaffelstein, M83, Armin van Buuren, John Carpenter, Robert "3D" Del Naja of Massive Attack fame, Moby, Pete Townshend (from The Who) and the late Edgar Froese of Tangerine Dream, the collaboration being one of Froese's last projects before passing away in the January of 2015.

Tracklist:

01 - The Time Machine [feat. Boys Noize]
02 - Glory [feat. M83]
03 - Close Your Eyes [feat. Air]
04 - Automatic (Part 1) [feat. Vince Clarke]
05 - Automatic (Part 2) [feat. Vince Clarke]
06 - If..! [feat. Little Boots]
07 - Immortals [feat. Fuck Buttons]
08 - Suns Have Gone [feat. Moby]
09 - Conquistador [feat. Gesaffelstein]
10 - Travelator (Part 2) [feat. Pete Townshend]
11 - Zero Gravity [feat. Tangerine Dream]
12 - Rely On Me [feat. Laurie Anderson]
13 - Stardust [feat. Armin Van Buuren]
14 - Watching You [feat. 3D - Massive Attack]
15 - A Question Of Blood [feat. John Carpenter]
16 - The Train & The River [feat. Lang Lang]
17 - Continuous Mix

Analyzed: Jean Michel Jarre / Electronica 1: The Time Machine
––––––––––––––––––––––––––––––––––––––––

DR Peak RMS Duration Track
––––––––––––––––––––––––––––––––––––––––
DR5 -1.50 dB -10.17 dB 3:51 01-The Time Machine
DR5 -1.50 dB -8.66 dB 3:56 02-Glory
DR5 -1.50 dB -8.83 dB 6:25 03-Close Your Eyes
DR6 -1.50 dB -9.13 dB 3:09 04-Automatic, Pt. 1
DR4 -1.50 dB -6.82 dB 2:59 05-Automatic, Pt. 2
DR6 -1.50 dB -9.23 dB 2:57 06-If..!
DR5 -1.80 dB -9.72 dB 4:30 07-Immortals
DR4 -1.50 dB -8.38 dB 5:47 08-Suns Have Gone
DR4 -1.50 dB -6.84 dB 3:07 09-Conquistador
DR4 -1.50 dB -6.99 dB 3:06 10-Travelator, Pt. 2
DR6 -1.50 dB -10.22 dB 6:47 11-Zero Gravity
DR5 -1.50 dB -8.71 dB 2:57 12-Rely on Me
DR5 -1.50 dB -8.85 dB 4:36 13-Stardust
DR4 -1.50 dB -7.25 dB 4:06 14-Watching You
DR4 -1.50 dB -7.05 dB 3:00 15-A Question of Blood
DR5 -1.50 dB -11.51 dB 7:14 16-The Train & The River
DR4 -1.50 dB -8.80 dB 1:10:27 17-Continuous Mix
––––––––––––––––––––––––––––––––––––––––

Number of tracks: 17
Official DR value: DR5

Samplerate: 48000 Hz
Channels: 2
Bits per sample: 24
Bitrate: 1742 kbps
Codec: FLAC
================================================================================


Thanks to the Original customer!


H E R E

password: AvaxHome




H E R E

password: AvaxHome




.