Jean-Michel Jarre - Revolutions (1988/2015) [Official Digital Download]

Posted By: HDV
Jean-Michel Jarre - Revolutions (1988/2015) [Official Digital Download]

Jean-Michel Jarre - Revolutions (1988/2015)
FLAC (tracks) 24-bit/48 kHz | Time - 44:14 minutes | 573 MB
Studio Master, Official Digital Download | Artwork: Front cover

"Revolutions" is the ninth studio album by electronic musician and composer Jean-Michel Jarre. The album spans several genres, including symphonic industrial, Arabian inspired, light guitar pop and ethnic electro jazz. The album reached number #2 in the UK charts, Jarre's best chart position since "Oxygène". The Destination Docklands concert in London coincided with the release of the album.

While it can be easy to dislike and dismiss some cookie-cutter electronic music, the challenge lies in finding reasons to listen to it again. Such is the case with Revolutions by Jean Michel Jarre. One reviewer wrote, simply, "(This) is not revolutionary." That is true; Jarre breaks no new ground with the release of this album. He does, however, continue to create original music in his own style. He is often imitated and that is the sincerest form of flattery. This album features ten short pieces (five minutes and 22 seconds is the longest) of pop influenced e-music. This disc neither challenges nor offends the listener. It has its moments but it neither soars nor plunges. Of course, die-hard Jarre fans will love this disc. Fans of Synergy, Char-El, Klaus Schulze, and Ashra will like it.

Tracklist:

01 - Industrial Revolution: Overture
02 - Industrial Revolution, Pt. 1
03 - Industrial Revolution, Pt. 2
04 - Industrial Revolution, Pt. 3
05 - London Kid
06 - Revolution, Revolutions
07 - Tokyo Kid
08 - Computer Weekend
09 - September
10 - The Emigrant

Analyzed: Jean-Michel Jarre / Revolutions
––––––––––––––––––––––––––––––––––––––––

DR Peak RMS Duration Track
––––––––––––––––––––––––––––––––––––––––
DR7 -1.20 dB -9.96 dB 5:09 01-Industrial Revolution: Overture
DR8 -1.20 dB -10.72 dB 5:09 02-Industrial Revolution, Pt. 1
DR8 -1.20 dB -10.18 dB 2:17 03-Industrial Revolution, Pt. 2
DR8 -1.20 dB -10.27 dB 4:12 04-Industrial Revolution, Pt. 3
DR8 -1.20 dB -10.46 dB 4:26 05-London Kid
DR6 -1.20 dB -9.00 dB 4:57 06-Revolution, Revolutions
DR7 -1.20 dB -9.63 dB 5:22 07-Tokyo Kid
DR7 -1.20 dB -10.41 dB 4:42 08-Computer Weekend
DR7 -1.20 dB -9.16 dB 4:05 09-September
DR8 -1.20 dB -10.40 dB 3:56 10-The Emigrant
––––––––––––––––––––––––––––––––––––––––

Number of tracks: 10
Official DR value: DR7

Samplerate: 48000 Hz
Channels: 2
Bits per sample: 24
Bitrate: 1730 kbps
Codec: FLAC
================================================================================


Thanks to the Original customer!

Some more of 'Jean-Michel Jarre' in Hi-Res