Jean-Michel Jarre - Waiting For Cousteau (1990/2015) [Official Digital Download]

Posted By: HDV
Jean-Michel Jarre - Waiting For Cousteau (1990/2015) [Official Digital Download]

Jean-Michel Jarre - Waiting For Cousteau (1990/2015)
FLAC (tracks) 24-bit/48 kHz | Time - 68:44 minutes | 862 MB
Studio Master, Official Digital Download | Artwork: Front cover

"En attendant Cousteau" (English title: "Waiting for Cousteau") is the tenth studio album by French electronic musician and composer Jean-Michel Jarre. The album was dedicated to Jacques-Yves Cousteau and was released on his 80th birthday.

The Undersea World of Jacques Cousteau has been one of television's most celebrated programs of all time. Jean Michel Jarre, a countryman of Jacques Cousteau's, composed and performed an e-music opus in honor of the oceanographer. En Attendant Cousteau (aka Waiting for Cousteau) is a departure from Jarre's usual format. This disc has three tracks that are longer than his normal tracks. (They are between six and nine minutes.) The fourth track is a major work, clocking in at 47 minutes. That track, "En Attendant Cousteau," is an epic minimalist creation. This is groundbreaking stuff, an unusual mode for Jarre, who hasn't gone this far out on a limb since his debut in 1976. It is a worthy risk. The atmospheric minimalism of the title track is deep and substantial. This is a great CD, certainly one of Jarre's top three. It will appeal to fans of Robert Scott Thompson, Jeff Pearce, James Johnson, and Mychael Danna.

Tracklist:

01 - Calypso, Pt. 1
02 - Calypso, Pt. 2
03 - Calypso, Pt. 3 (Fin De Siècle)
04 - Waiting for Cousteau

Analyzed: Jean-Michel Jarre / Waiting for Cousteau
––––––––––––––––––––––––––––––––––––––––

DR Peak RMS Duration Track
––––––––––––––––––––––––––––––––––––––––
DR6 -1.20 dB -8.61 dB 8:23 01-Calypso, Pt. 1
DR7 -1.20 dB -10.46 dB 7:10 02-Calypso, Pt. 2
DR8 -1.20 dB -10.10 dB 6:23 03-Calypso, Pt. 3 (Fin De Siècle)
DR8 -1.26 dB -12.03 dB 46:48 04-Waiting for Cousteau
––––––––––––––––––––––––––––––––––––––––

Number of tracks: 4
Official DR value: DR7

Samplerate: 48000 Hz
Channels: 2
Bits per sample: 24
Bitrate: 1625 kbps
Codec: FLAC
================================================================================


Thanks to the Original customer!

Some more of 'Jean-Michel Jarre' in Hi-Res