Tags
Language
Tags

Jeff Beck - Live In Tokyo (2014) [Blu-Ray to FLAC 24 bit/96 kHz]

Posted By: HDV
Jeff Beck - Live In Tokyo (2014) [Blu-Ray to FLAC 24 bit/96 kHz]

Jeff Beck - Live In Tokyo (2014)
FLAC(tracks) 24 bit/96 kHz | Time - 91:57 minutes | 2,03 GB
Blu-Ray Rip | Sourced Track - LPCM 2.0 Stereo | Front Cover

Jeff Beck is undeniably one of the world s greatest guitar players. Technically brilliant, he is renowned for pushing musical boundaries and has excelled across many different genres from rock and jazz to pop and blues. Live In Tokyo was recorded at the Tokyo Dome City Hall in Japan. These Japanese dates were the first to feature Jeff Beck s new backing band of Jonathan Joseph (drums), Nicolas Meier (guitars) and Rhonda Smith (bass) and the setlist includes some material from his new, as yet unreleased, studio album. In contrast to Beck s previous visual releases, both filmed in small clubs, Live In Tokyo is filmed in a major concert arena and has a very different, more expansive feel. Jeff Beck is a true guitar legend and this show captures him at his very best.

Tracklist:

01 - Loaded
02 - Little Wing
03 - You Know You Know
04 - Hammerhead
05 - Angel (Footsteps)
06 - Stratus
07 - Yemin
08 - Where Were You
09 - The Pump
10 - Medley: Goodbye Pork Pie Hat / Brush With The Blues
11 - You Never Know
12 - Danny Boy
13 - Blue Wind
14 - Led Boots
15 - Corpus Christi Carol
16 - Big Block
17 - A Day In The Life
18 - Rollin' And Tumblin'
19 - Cause We've Ended As Lovers
20 - Why Give It Away

Analyzed: Jeff Beck / Live In Tokyo
––––––––––––––––––––––––––––––––––––––––

DR Peak RMS Duration Track
––––––––––––––––––––––––––––––––––––––––
DR8 -3.38 dB -13.78 dB 4:52 01-Loaded
DR8 -3.63 dB -14.91 dB 3:10 02-Little Wing
DR8 -3.46 dB -13.17 dB 6:44 03-You Know You Know
DR7 -3.64 dB -12.05 dB 4:04 04-Hammerhead
DR8 -3.72 dB -14.97 dB 5:30 05-Angel (Footsteps)
DR7 -3.50 dB -12.74 dB 5:45 06-Stratus
DR7 -3.69 dB -14.37 dB 6:23 07-Yemin
DR11 -4.21 dB -18.62 dB 3:15 08-Where Were You
DR9 -3.62 dB -13.26 dB 3:57 09-The Pump
DR8 -3.67 dB -14.43 dB 4:08 10-Medley: Goodbye Pork Pie Hat / Brush With The Blues
DR7 -3.54 dB -12.32 dB 4:05 11-You Never Know
DR7 -3.75 dB -14.71 dB 3:04 12-Danny Boy
DR7 -3.50 dB -11.18 dB 2:55 13-Blue Wind
DR7 -3.55 dB -11.95 dB 4:10 14-Led Boots
DR11 -3.93 dB -18.75 dB 2:33 15-Corpus Christi Carol
DR7 -3.51 dB -11.98 dB 5:18 16-Big Block
DR7 -3.46 dB -13.95 dB 6:11 17-A Day In The Life
DR8 -3.63 dB -13.01 dB 5:14 18-Rollin' And Tumblin'
DR9 -3.77 dB -15.82 dB 3:59 19-Cause We've Ended As Lovers
DR8 -3.01 dB -12.49 dB 6:37 20-Why Give It Away
––––––––––––––––––––––––––––––––––––––––

Number of tracks: 20
Official DR value: DR8

Samplerate: 96000 Hz
Channels: 2
Bits per sample: 24
Bitrate: 3114 kbps
Codec: FLAC
================================================================================


All files were fully tagged.