Subcategories

Jeremy Monteiro Trio - A Song For You, Karen (2002) PS3 ISO + Hi-Res FLAC

Posted By: HDAtall
Jeremy Monteiro Trio - A Song For You, Karen (2002) PS3 ISO + Hi-Res FLAC

Jeremy Monteiro Trio - A Song For You, Karen (2002)
PS3 Rip | SACD ISO | DSD64 2.0 > 1-bit/2.8224 MHz | 69:39 minutes | Scans included | 2,06 GB
or FLAC(converted with foobar2000 to tracks) 24bit/88,2 kHz | Scans included | 1,42 GB

A jazz tribute album to the music of the Carpenters! This big cast album features Jeremy Monteiro, jazz pianist, composer and conductor with guest stars including Two For Brazil and Jacintha tackling the ultimate challenge of singing Karen Carpenter's parts.

Tracklist:

01. A Song For You
02. When I Fall In Love
03. This Masquerade
04. We've Only Just Begun
05. Top Of The World
06. For All We Know
07. Rainy Days And Mondays
08. There's A Kind Of Hush
09. All You Get From Love Is A Love Song
10. I Won't Last A Day Without You
11. (They Long To Be) Close To You
12. Yesterday Once More
13. A Song For You (instrumental reprise)

Recorded and Mixed on March 20-25, 2002.
Mastered by Greg Calbi & Jim Anderson.

Personnel
Jeremy Monteiro - arrangements & piano
Eric Schneider - saxophone & clarinet
Paul Martin - double bass
Tim Davis - drums
guests:
Jacintha - vocals on "1, 3, 6, 10"
Paulinho Garcia - acoustic guitar, vocals on "8"
Greg Fisman - flute on "8"

foobar2000 1.3.14 / Dynamic Range Meter 1.1.1

––––––––––––––––––––––––––––––––––––––––
Analyzed: Jeremy Monteiro / A Song For You
––––––––––––––––––––––––––––––––––––––––

DR Peak RMS Duration Track
––––––––––––––––––––––––––––––––––––––––
DR17 -8.47 dB -31.27 dB 8:46 01-A Song For You
DR15 -9.09 dB -27.91 dB 5:50 02-When I Fall In Love
DR15 -4.19 dB -24.03 dB 5:23 03-This Masquerade
DR18 -3.78 dB -26.14 dB 5:39 04-We've Only Just Begun
DR15 -4.25 dB -22.00 dB 4:00 05-Top Of The World
DR13 -8.68 dB -27.22 dB 3:23 06-For All We Know
DR15 -4.38 dB -24.98 dB 6:25 07-Rainy Days And Mondays
DR12 -6.00 dB -20.36 dB 3:55 08-There's A Kind Of Hush
DR14 -5.08 dB -23.47 dB 4:35 09-All You Get From Love Is A Love Song
DR14 -5.46 dB -25.63 dB 5:41 10-I Won't Last A Day Without You
DR14 -4.39 dB -22.03 dB 4:07 11-(They Long To Be) Close To You
DR15 -7.76 dB -28.20 dB 6:28 12-Yesterday Once More
DR15 -6.23 dB -26.50 dB 5:27 13-A Song For You (instrumental reprise)
––––––––––––––––––––––––––––––––––––––––

Number of tracks: 13
Official DR value: DR15

Samplerate: 2822400 Hz / PCM Samplerate: 88200 Hz
Channels: 2
Bits per sample: 1
Bitrate: 5645 kbps
Codec: DSD64


Thanks to the Original ripper!
Uncompressed SACD ISO size > 2,81 GB
>