Jesse Davis Quintet - Live At Smalls (2012) [Official Digital Download 24/88]

Posted By: HDV
Jesse Davis Quintet - Live At Smalls (2012) [Official Digital Download 24/88]

Jesse Davis Quintet - Live At Smalls (2012)
FLAC (tracks) 24-bit/88,2 kHz | Time - 75:06 minutes | 1,59 GB
Studio Master, Official Digital Download | Artwork: Digital booklet

Jesse Davis has a classic tone that will remind you of the best and beautiful days of bebop. With "Live At Smalls" you get a feeling of a classic jazz performance. This live performance from 2011 features great interaction between Davis and Ryan Kisor; Davis sounds bold and his quintet have an urgency that makes this live date extremely exciting and romantic. A great session filled with lengthy selections and is a perfect introduction to a great performer.

Jesse Davis was one of the original ''young lions'' of the 1980's. Born in New Orleans, he quickly emerged as the dominant voice on his instrument in New York City. He worked with Wynton Marsalis, Nicholas Payton, Hank Jones and Mulgrew Miller before moving to Europe. On this date he is joined by the great Ryan Kisor on trumpet, Peter Washington on bass , Spike Wilner on piano and Billy Drummond on drums. The music is a hard swinging combination of soulful originals and classic standards.

Tracklist:

01 - I'll Close My Eyes
02 - Piece Of The Apple
03 - Body & Soul
04 - Pray Thee/Beyond The Storm
05 - Journey From The Lighthouse

Produced by Spike Wilner & Ben Rubin. Engineered by Tyler McDiarmid.
Recorded on December 13-15, 2011 at Smalls Jazz Club, Greenwich Village, NYC.
Mixed by Ben Rubin at the Hiouse Of Chacha. Mastered by Gene Paul & Jamie Polaski.

Musicians:
Jesse Davis - alto sax
Ryan Kisor – trumpet
Spike Wilner – piano
Peter Washington - bass
Billy Drummond - drums

Analyzed: Jesse Davis Quintet / Live at Smalls
––––––––––––––––––––––––––––––––––––––––

DR Peak RMS Duration Track
––––––––––––––––––––––––––––––––––––––––
DR10 -0.70 dB -14.70 dB 19:49 01-I’ll Close My Eyes
DR8 -0.70 dB -11.57 dB 18:47 02-Piece Of The Apple
DR9 -0.70 dB -13.96 dB 10:55 03-Body & Soul
DR7 -0.70 dB -11.36 dB 12:55 04-Pray Thee/Beyond The Storm
DR8 -0.70 dB -12.10 dB 12:39 05-Journey From The Lighthouse
––––––––––––––––––––––––––––––––––––––––

Number of tracks: 5
Official DR value: DR9

Samplerate: 88200 Hz
Channels: 2
Bits per sample: 24
Bitrate: 2928 kbps
Codec: FLAC
================================================================================


Thanks to the Original customer!